osu file format v12

[General]
AudioFilename: Y.M.C.A..mp3
AudioLeadIn: 1500
PreviewTime: 30444
Countdown: 0
SampleSet: Soft
StackLeniency: 0.3
Mode: 0
LetterboxInBreaks: 1
WidescreenStoryboard: 1

[Editor]
DistanceSpacing: 1.2
BeatDivisor: 4
GridSize: 8

[Metadata]
Title:Y.M.C.A.
TitleUnicode:Y.M.C.A.
Artist:The Minions
ArtistUnicode:The Minions
Creator:No_Gu
Version:Easy
Source:Despicable Me 2
Tags:The Village People Pierre Coffin kantokun mintong89
BeatmapID:325542
BeatmapSetID:127133

[Difficulty]
HPDrainRate:2
CircleSize:3
OverallDifficulty:2
ApproachRate:3
SliderMultiplier:0.8
SliderTickRate:1

[Events]
//Background and Video events
0,0,"minions.jpg",0,0
//Break Periods
//Storyboard Layer 0 (Background)
//Storyboard Layer 1 (Fail)
//Storyboard Layer 2 (Pass)
//Storyboard Layer 3 (Foreground)
//Storyboard Sound Samples
//Background Colour Transformations
3,100,163,162,255

[TimingPoints]
194,500,4,3,1,50,1,0
10194,-100,4,2,1,50,0,0
12194,-100,4,3,1,50,0,0
12319,-100,4,2,1,50,0,0
13069,-100,4,3,1,50,0,0
13319,-100,4,2,1,50,0,0
14194,-100,4,3,1,50,0,0
14319,-100,4,2,1,50,0,0
15069,-100,4,3,1,50,0,0
15319,-100,4,2,1,50,0,0
16194,-100,4,3,1,50,0,0
16319,-100,4,2,1,50,0,0
17069,-100,4,3,1,50,0,0
17319,-100,4,2,1,50,0,0
18194,-100,4,3,1,50,0,0
18319,-100,4,2,1,50,0,0
19069,-100,4,3,1,50,0,0
19319,-100,4,2,1,50,0,0
20194,-100,4,3,1,50,0,0
20319,-100,4,2,1,50,0,0
21069,-100,4,3,1,50,0,0
21319,-100,4,2,1,50,0,0
22194,-100,4,3,1,50,0,0
22319,-100,4,2,1,50,0,0
23069,-100,4,3,1,50,0,0
23319,-100,4,2,1,50,0,0
32194,-100,4,3,1,70,0,1
32319,-100,4,2,1,70,0,1
33069,-100,4,3,1,70,0,1
33319,-100,4,2,1,70,0,1
34194,-100,4,3,1,70,0,1
34319,-100,4,2,1,70,0,1
35069,-100,4,3,1,70,0,1
35319,-100,4,2,1,70,0,1
36194,-100,4,3,1,70,0,1
36319,-100,4,2,1,70,0,1
37069,-100,4,3,1,70,0,1
37319,-100,4,2,1,70,0,1
38194,-100,4,3,1,70,0,1
38319,-100,4,2,1,70,0,1
39069,-100,4,3,1,70,0,1
39319,-100,4,2,1,70,0,1
40194,-100,4,3,1,70,0,1
40319,-100,4,2,1,70,0,1
41069,-100,4,3,1,70,0,1
41319,-100,4,2,1,70,0,1
42194,-100,4,3,1,70,0,1
42319,-100,4,2,1,70,0,1
43069,-100,4,3,1,70,0,1
43319,-100,4,2,1,70,0,1
44194,-100,4,3,1,70,0,1
44319,-100,4,2,1,70,0,1
45069,-100,4,3,1,70,0,1
45319,-100,4,2,1,70,0,1
46194,-100,4,3,1,70,0,1
46319,-100,4,2,1,70,0,1
47069,-100,4,3,1,70,0,1
47319,-100,4,2,1,70,0,1
48069,-100,4,2,1,70,0,0
48194,-100,4,3,1,70,0,1
48319,-100,4,2,1,70,0,1
49069,-100,4,3,1,70,0,1
49319,-100,4,2,1,70,0,1
50194,-100,4,3,1,70,0,1
50319,-100,4,2,1,70,0,1
51069,-100,4,3,1,70,0,1
51319,-100,4,2,1,70,0,1
52194,-100,4,3,1,70,0,1
52319,-100,4,2,1,70,0,1
53069,-100,4,3,1,70,0,1
53319,-100,4,2,1,70,0,1
54194,-100,4,3,1,70,0,1
54319,-100,4,2,1,70,0,1
55069,-100,4,3,1,70,0,1
55319,-100,4,2,1,70,0,1
56194,-100,4,3,1,70,0,1
56319,-100,4,2,1,70,0,1
57069,-100,4,3,1,70,0,1
57319,-100,4,2,1,70,0,1
58194,-100,4,3,1,70,0,1
58319,-100,4,2,1,70,0,1
59069,-100,4,3,1,70,0,1
59319,-100,4,2,1,70,0,1
60194,-100,4,3,1,70,0,1
60319,-100,4,2,1,70,0,1
61069,-100,4,3,1,70,0,1
61319,-100,4,2,1,70,0,1
62194,-100,4,3,1,70,0,1
63319,-100,4,2,1,70,0,1
64194,-100,4,2,1,70,0,0

[Colours]
Combo1 : 128,255,128
Combo2 : 255,255,128
Combo3 : 128,255,128
Combo4 : 128,255,255

[HitObjects]
104,191,194,2,0,P|171:155|179:78,1,160,2|0,0:0|0:0,0:0:0:0:
256,24,1694,1,0,0:0:0:0:
332,78,2194,2,0,P|340:155|407:191,1,160
496,152,3694,1,0,0:0:0:0:
488,248,4194,6,0,B|480:296|480:296|424:328|368:304,1,160,2|0,0:0|0:0,0:0:0:0:
320,224,5694,1,0,0:0:0:0:
256,152,6194,2,0,B|264:128|248:104|256:72,2,80
192,224,7694,1,0,0:0:0:0:
138,306,8194,6,0,B|88:328|32:296|32:296|24:248,1,160,4|2,0:2|0:0,0:0:0:0:
16,152,9694,1,0,0:0:0:0:
256,192,10194,12,8,11694,0:0:0:0:
256,192,12194,5,4,0:1:0:0:
184,128,12694,2,8,P|144:112|40:160,2,160
256,192,15194,1,0,0:0:0:0:
328,128,15694,6,8,P|368:112|472:160,2,160
320,224,18194,2,0,L|312:304,1,80,0|8,0:0|0:0,0:0:0:0:
216,304,19194,2,0,L|224:224,1,80,0|8,0:0|0:0,0:0:0:0:
168,144,20194,5,0,0:0:0:0:
88,200,20694,2,8,P|64:264|104:360,1,160
184,360,22194,1,0,0:0:0:0:
264,312,22694,2,0,P|312:312|352:328,2,80,8|0|8,0:0|0:0|0:0,0:0:0:0:
184,256,24194,6,8,B|160:216|160:216|176:144,1,120,12|8,0:0|0:0,0:0:0:0:
264,32,25694,2,8,B|288:72|288:72|272:144,1,120,8|12,0:0|0:0,0:0:0:0:
376,248,27194,1,12,0:0:0:0:
280,256,27694,1,12,0:0:0:0:
336,336,28194,6,0,L|432:336,1,80,8|8,0:0|0:0,0:0:0:0:
456,248,29194,2,8,L|376:248,1,80
320,168,30194,1,12,0:0:0:0:
104,64,32194,6,0,L|96:152,1,80,4|8,0:1|0:0,0:0:0:0:
152,224,33194,1,0,0:0:0:0:
208,144,33694,2,8,B|240:168|256:208|256:208|272:168|304:144,1,160
360,224,35194,1,0,0:0:0:0:
415,143,35694,2,0,L|408:64,1,80,8|0,0:0|0:0,0:0:0:0:
328,120,36694,6,8,B|256:154|256:154|184:120,1,160
104,64,38194,2,0,L|96:143,1,80,0|8,0:0|0:0,0:0:0:0:
56,232,39194,1,0,0:0:0:0:
144,264,39694,6,8,B|176:304|160:368|160:368|192:376|208:336,1,160
256,264,41194,1,0,0:0:0:0:
309,348,41694,2,8,B|320:376|352:368|352:368|336:304|368:264,1,160
424,192,43194,2,0,L|512:192,2,80,0|8|0,0:0|0:0|0:0,0:0:0:0:
336,152,44694,6,8,L|168:152,1,160
88,192,46194,2,0,L|8:192,2,80,0|8|0,0:0|0:0|0:0,0:0:0:0:
168,240,47694,2,0,P|176:288|160:320,1,80,8|4,0:0|0:1,0:0:0:0:
256,344,48694,6,8,L|256:176,2,160
348,315,51194,2,0,P|334:278|344:240,1,80,0|8,0:0|0:0,0:0:0:0:
440,216,52194,5,0,0:0:0:0:
368,152,52694,2,8,B|384:128|400:120|400:120|368:48|304:64,1,160
256,144,54194,1,0,0:0:0:0:
199,62,54694,2,8,B|144:48|112:120|112:120|128:128|144:152,1,160
112,240,56194,5,0,0:0:0:0:
208,232,56694,2,0,L|208:320,1,80,8|0,0:0|0:0,0:0:0:0:
304,312,57694,2,0,L|304:232,1,80,8|0,0:0|0:0,0:0:0:0:
376,168,58694,6,8,B|416:136|488:160|512:208,2,160
288,128,61194,2,0,P|280:96|288:48,1,80,0|8,0:0|0:0,0:0:0:0:
200,16,62194,5,0,0:0:0:0:
112,56,62694,2,0,P|88:128|112:208,1,160,8|8,2:0|0:0,0:0:0:0:
208,192,64194,2,0,P|256:139|304:192,1,160,12|12,0:0|0:0,0:0:0:0:
256,272,65694,2,0,L|256:328,1,40,0|12,3:0|0:0,0:0:0:0:
