osu file format v7

[General]
AudioFilename: mnb-tiktok.mp3
AudioLeadIn: 0
PreviewTime: 47654
Countdown: 0
SampleSet: Normal
StackLeniency: 0.7
Mode: 0
LetterboxInBreaks: 0

[Editor]
DistanceSpacing: 0.899999976158142
BeatDivisor: 4
GridSize: 8

[Metadata]
Title:Tik Tok (Parody)
Artist:The Midnight Beast
Creator:MarioBros777
Version:Normal
Source:
Tags:Larto Ke$ha

[Difficulty]
HPDrainRate:4
CircleSize:4
OverallDifficulty:5
SliderMultiplier:1.6
SliderTickRate:1

[Events]
//Background and Video events
Video,-7450,"The+Midnight+Beast+-+Tik+Tok+(kesha)+Parody_xvid.avi"
0,0,"tiktokbg2-0.jpg"
//Break Periods
2,64718,70818
//Storyboard Layer 0 (Background)
//Storyboard Layer 1 (Fail)
//Storyboard Layer 2 (Pass)
//Storyboard Layer 3 (Foreground)
//Storyboard Sound Samples
//Background Colour Transformations
3,100,0,0,0

[TimingPoints]
519.590700743107,500,4,1,0,70,1,0
48509,-100,4,1,0,70,0,1
64509,-100,4,1,0,70,0,0
97519,500,4,1,0,70,1,0
113509,-100,4,1,0,70,0,1
129294,-100,4,1,0,29,0,0
132919,-100,4,1,0,72,0,0
133294,-100,4,1,0,30,0,0
147509,-100,4,1,0,69,0,0
152019,500,4,1,0,69,1,1
175259,-100,4,1,0,100,0,1
176259,-100,4,1,0,70,0,1
183999,-100,4,1,0,70,0,0
199759,-100,4,1,0,70,0,0
200009,-100,4,1,0,71,0,1

[HitObjects]
256,344,16018,1,8
256,272,16268,1,0
256,200,16518,2,0,B|344:176|432:208,1,160,6|8
488,200,17268,1,0
448,136,17518,2,6,B|368:104|272:120,1,160
176,48,18518,6,0,B|8:80|88:248,1,240,6|0
104,288,19518,1,6
232,352,20018,1,6
352,272,20518,5,2
280,192,20893,1,0
352,112,21268,1,0
352,192,21518,1,2
256,192,22018,12,2,24018
336,48,24518,5,4
256,48,24768,2,0,B|200:48|160:88,1,80,0|2
120,112,25268,1,0
104,184,25518,2,6,B|144:264|256:264,2,160
256,184,27018,1,8
408,184,27518,2,6,B|368:264|256:264,2,160
256,184,29018,1,8
256,192,29518,12,6,32018
256,264,32518,5,6
400,264,33018,2,0,B|432:216|384:168,2,80,8|0|2
280,344,34018,6,0,B|168:352|112:288,1,160,8|6
272,272,35018,2,0,B|384:272|440:208,1,160,8|2
328,120,36018,5,8
256,120,36268,1,0
184,120,36518,1,6
192,240,37018,2,0,B|224:288|256:248|256:248|304:288|336:224,1,160,8|2
416,112,38018,5,8
344,88,38268,1,0
272,72,38518,2,0,B|56:48|56:256,1,320,6|6
176,312,40018,5,2
248,328,40268,1,0
320,312,40518,2,0,B|376:312|376:248,1,80,6|0
312,240,41018,2,0,B|224:256|144:168,1,160,2|2
219,56,42018,5,8
291,56,42268,1,0
336,128,42518,2,6,B|168:128,2,160
256,248,44018,1,2
400,224,44518,6,0,B|536:128|400:-48|256:120|360:168,1,320,2|2
336,288,46018,1,2
192,224,46518,6,0,B|56:128|192:-48|336:120|224:168,1,320,2|2
256,288,48018,1,2
112,288,48518,6,0,B|40:216,1,80,6|0
56,159,49018,2,0,B|64:96|164:96|168:165,2,160,8|2|8
111,205,50268,1,0
168,248,50518,1,6
256,360,51018,1,8
344,248,51518,1,2
323,105,52018,6,6,B|276:103|256:65|256:65|236:103|183:104,1,160
189,279,53018,2,0,B|236:281|256:319|256:319|276:281|329:280,1,160,8|2
432,192,54018,5,8
360,192,54268,1,0
288,192,54518,2,6,B|112:192,2,160
392,48,56018,5,2
464,72,56268,1,0
464,144,56518,1,6
352,232,57018,5,2
280,208,57268,1,0
280,136,57518,1,6
176,40,58018,5,8
80,152,58518,2,0,B|24:224,1,80,2|0
96,240,59018,2,0,B|80:328,1,80,8|0
152,304,59518,2,6,B|224:368|304:296,1,160
240,168,60518,6,0,B|240:32|408:32,1,240,2|0
392,104,61518,1,2
392,248,62018,1,2
272,168,62518,6,0,B|272:32|104:32,1,240,2|0
112,104,63518,1,2
136,248,64018,1,2
256,328,64518,1,4
80,104,72018,5,8
152,88,72268,1,0
224,72,72518,2,4,B|280:152|208:240,2,160,6|8|2
280,24,73768,2,0,B|328:104,1,80
320,232,74518,2,6,B|168:232,3,120
80,232,76018,5,8
184,336,76518,1,6
256,336,76768,1,0
328,336,77018,1,8
432,232,77518,1,2
384,176,77768,1,0
328,128,78018,1,8
184,128,78518,6,8,B|184:280,1,120
256,336,79268,2,8,B|256:232,1,80
256,112,80018,5,6
112,112,80518,1,4
64,168,80768,1,0
56,240,81018,1,8
176,320,81518,5,6
336,320,82018,1,2
296,184,82518,6,2,B|296:88,1,80,2|0
216,104,83018,2,0,B|216:184,1,80,8|0
176,256,83518,2,6,B|360:256,1,160
432,144,84518,6,2,B|440:96|384:56,1,80,2|0
344,32,85018,2,8,B|264:48|264:136|280:168,1,160,8|6
296,224,85768,1,0
256,72,88018,5,6
128,80,88518,6,2,B|40:88,1,80,2|0
48,160,89018,2,0,B|127:167,1,80,8|0
200,176,89518,2,0,B|208:280|128:328,2,160,6|6|2
192,104,90768,5,0
256,56,91018,1,8
320,104,91268,1,0
312,176,91518,2,0,B|304:280|384:328,2,160,6|6|8
256,0,93268,1,8
256,216,94018,1,8
256,112,94518,1,6
168,296,97018,5,2
344,296,97519,1,14
256,192,98019,2,0,B|256:96,2,80,2|0|2
120,248,99019,6,0,B|64:160,1,80,8|0
40,120,99519,1,6
184,128,100019,1,8
256,8,100519,1,2
328,128,101019,1,2
472,120,101519,1,6
408,232,102019,6,0,B|304:232,1,80,8|0
256,232,102519,1,2
104,344,103019,6,0,B|208:344,1,80,8|0
256,344,103519,1,2
320,224,104019,1,6
192,224,104519,1,6
120,104,105019,6,0,B|224:104,1,80,2|0
280,104,105519,2,2,B|368:104|432:192,1,160,2|8
416,256,106269,1,0
336,248,106519,2,2,B|248:248|184:336,1,160,2|8
120,320,107269,1,0
56,272,107519,1,6
56,112,108019,1,6
192,192,108519,1,6
344,248,109019,6,2,B|416:216|408:104|360:104,1,160,2|6
168,144,110269,5,0
256,192,110519,1,6
328,336,111019,1,2
168,336,111519,1,6
344,240,112269,5,0
256,192,112519,1,6
184,48,113019,1,2
344,48,113519,1,6
456,160,114019,6,0,B|496:248,1,80,2|0
496,312,114519,2,2,B|432:368|320:352,1,160
272,328,115269,1,0
200,288,115519,1,6
200,96,116019,1,6
352,192,116519,1,6
176,192,117019,6,0,B|80:216,1,80,8|0
16,216,117519,2,0,B|-40:136|16:64,2,160,6|8|2
112,344,119019,6,0,B|208:344,1,80,8|0
272,344,119519,1,6
272,192,120019,1,2
272,40,120519,1,6
416,104,121019,6,0,B|416:200,1,80,2|0
416,264,121519,2,0,B|328:288|240:256,1,160,6|8
184,232,122269,1,0
112,192,122519,2,0,B|88:104|120:16,1,160,6|8
192,48,123269,1,0
256,96,123519,1,6
336,232,124019,1,6
176,232,124519,1,6
256,352,125019,1,2
410,334,125519,6,0,B|488:272|504:112|384:24,1,320,2|6
256,96,127019,1,2
102,50,127519,2,0,B|24:112|8:272|128:360,1,320,6|2
256,288,129019,1,2
136,184,129519,6,0,B|176:112|304:112,1,160,4|8
352,112,130269,1,0
424,152,130519,1,2
432,296,131019,1,2
296,336,131519,6,0,B|256:352|200:336,1,80,2|0
136,328,132019,1,8
80,272,132269,1,0
40,200,132519,2,0,B|72:152|144:160,1,80,2|0
176,160,133019,1,6
296,152,133519,6,0,B|344:152|392:184,2,80,4|0|8
264,80,134269,2,0,B|208:80,2,40,0|0|2
344,80,134769,2,2,B|400:80|448:112,1,80
416,256,135519,5,4
336,296,135769,1,0
256,328,136019,1,8
176,296,136269,1,0
96,256,136519,1,2
256,192,137019,1,2
152,88,137519,6,0,B|184:48|248:48,1,80,2|0
296,48,138019,2,0,B|344:56|384:104,1,80,8|0
336,152,138519,2,4,B|256:176|160:152,2,160,4|8|4
360,216,139769,5,0
296,240,140019,1,8
224,240,140269,1,0
160,216,140519,2,4,B|56:232|88:336,2,160,4|8|4
128,152,141769,1,0
144,80,142019,6,0,B|240:56,1,80,8|0
224,136,142519,2,6,B|304:176|408:176,2,160
256,192,143644,12,4,147144
256,112,147769,5,4
400,112,148519,1,8
112,112,149519,1,8
256,64,151519,5,2
256,64,152019,1,6
136,120,152519,1,8
72,152,152769,1,0
56,224,153019,2,2,B|96:312|208:304,1,160,2|8
256,296,153769,1,0
328,272,154019,2,0,B|296:208|360:168|328:104,2,160,6|8|2
192,224,155519,5,8
168,144,155769,1,0
96,96,156019,1,6
16,216,156519,5,8
40,304,156769,1,0
112,344,157019,1,2
256,360,157519,6,0,B|352:360,1,80,8|0
408,360,158019,2,0,B|464:280|384:184,2,160,6|8|6
256,280,159519,5,2
256,280,159769,1,0
256,280,160019,1,6
256,152,160519,5,2
256,152,160769,1,0
256,152,161019,1,2
328,40,161519,5,2
328,40,161769,1,0
328,40,162019,2,0,B|128:40,2,160,6|8|2
392,152,163519,1,2
440,272,164019,6,2,B|400:368|288:216|224:296,1,240,2|0
176,352,165019,1,6
40,264,165519,1,2
72,104,166019,6,2,B|112:200|224:48|288:128,1,240,2|0
336,184,167019,1,6
472,96,167519,1,2
336,16,168019,5,2
176,32,168519,2,2,B|80:48,1,80
40,104,169019,2,2,B|16:184|40:280,1,160
96,312,169769,1,0
168,312,170019,2,4,B|240:352|256:272|336:320,2,160
288,232,171519,6,2,B|320:160|288:48,1,160,8|0
160,32,172519,2,0,B|104:32|48:56,1,80,8|0
40,104,173019,2,2,B|-8:192|88:264,1,160,2|10
128,288,173769,1,0
200,288,174019,2,4,L|288:288|360:232,2,160,6|6|6
256,152,175519,6,2,L|248:144|264:136|248:128|264:120|248:112|264:104|248:96|264:96|256:96|256:64,1,160
400,80,176519,2,2,B|488:128|448:240,1,160
352,320,177519,1,8
296,184,178019,5,4
296,184,178269,1,0
216,184,178519,1,4
216,184,178769,1,0
256,120,179019,1,6
256,120,179519,1,6
208,256,180019,6,0,B|263:319|175:415|55:304|157:242,1,240,2|2
172,194,181019,1,4
172,194,181519,1,4
304,256,182019,6,0,B|249:318|337:414|457:303|355:241,1,240,2|2
340,192,183019,1,4
340,192,183519,1,4
440,88,184019,5,4
440,232,184519,5,2
320,312,185019,1,0
256,184,185519,1,2
192,312,186019,1,0
72,232,186519,1,2
136,104,187019,1,0
256,192,187519,5,4
256,192,188019,1,4
215,315,188519,6,0,B|152:312|128:240|152:192,1,160,2|0
296,315,189519,2,0,B|360:312|384:240|360:192,1,160,2|0
256,80,190519,2,0,B|256:256,1,160,2|0
256,312,191269,6,0,B|208:312|208:312|192:280|192:280|128:280,2,120,6|6|6
392,264,192519,1,2
392,120,193019,1,0
256,64,193519,5,10
120,104,194019,2,2,B|32:152|80:248,1,160
152,352,195019,1,12
296,352,195519,1,4
344,216,196019,6,0,B|392:128|328:32,1,160,4|0
256,80,196769,1,0
168,40,197019,2,2,B|120:128|184:224,1,160,6|2
139,337,198019,6,2,B|256:384|376:336,1,240
328,280,199019,1,10
184,280,199519,1,2
256,152,200019,1,4
