osu file format v7

[General]
AudioFilename: mnb-tiktok.mp3
AudioLeadIn: 0
PreviewTime: 47634
Countdown: 0
SampleSet: Normal
StackLeniency: 0.7
Mode: 0
LetterboxInBreaks: 0

[Editor]
DistanceSpacing: 0.899999976158142
BeatDivisor: 4
GridSize: 8

[Metadata]
Title:Tik Tok (Parody)
Artist:The Midnight Beast
Creator:MarioBros777
Version:Easy
Source:
Tags:Larto Ke$ha

[Difficulty]
HPDrainRate:1
CircleSize:3
OverallDifficulty:2
SliderMultiplier:1.2
SliderTickRate:1

[Events]
//Background and Video events
Video,-7450,"The+Midnight+Beast+-+Tik+Tok+(kesha)+Parody_xvid.avi"
0,0,"tiktokbg3-0.jpg"
//Break Periods
2,64718,70458
//Storyboard Layer 0 (Background)
//Storyboard Layer 1 (Fail)
//Storyboard Layer 2 (Pass)
//Storyboard Layer 3 (Foreground)
//Storyboard Sound Samples
//Background Colour Transformations
3,100,0,0,0

[TimingPoints]
519.590700743107,500,4,1,0,70,1,0
29544,-100,4,2,0,70,0,0
30509,-100,4,1,0,70,0,0
48509,-100,4,1,0,70,0,1
64509,-100,4,1,0,70,0,0
97519,500,4,1,0,70,1,0
113509,-100,4,1,0,70,0,1
129294,-100,4,1,0,31,0,0
132794,-100,4,1,0,71,0,0
133294,-100,4,1,0,31,0,0
147519,-100,4,1,0,71,0,0
152019,500,4,1,0,71,1,1
183999,-100,4,1,0,71,0,0
199759,-100,4,1,0,71,0,0
200009,-100,4,1,0,71,0,1

[HitObjects]
256,48,16518,1,4
208,232,17518,1,2
304,232,18018,1,2
256,320,18518,5,4
208,136,19518,1,2
304,136,20018,1,2
368,208,20518,2,0,B|256:272|136:208,1,240,4|2
256,192,21768,12,4,24518
208,192,25518,5,2
304,192,26018,1,2
256,272,26518,5,4
200,88,27518,2,2,B|336:88,1,120
409,128,28518,6,4,B|407:279|95:279|103:117,1,420,4|2
256,336,32018,5,2
256,216,32518,1,4
200,112,33018,2,0,B|256:96|320:112,1,120,2|2
408,192,34018,5,8
336,288,34518,2,0,B|216:336|88:280,1,240,6|2
168,184,36018,5,8
240,88,36518,1,6
312,184,37018,5,8
376,80,37518,1,2
440,184,38018,5,8
416,304,38518,2,0,B|288:352|176:304,1,240,6|2
120,200,40018,6,2,B|176:152|248:208,1,120,0|2
304,104,41018,2,0,B|360:152|432:96,1,120,8|2
456,216,42018,5,8
376,312,42518,1,6
256,312,43018,1,2
136,312,43518,1,2
56,224,44018,1,8
160,168,44518,6,4,B|240:80|288:80|376:184,2,240
200,280,47018,1,8
320,280,47518,1,2
416,208,48018,1,2
322,132,48518,6,0,B|362:74|307:6,1,120,6|8
194,20,49518,2,0,B|148:80|205:148,1,120,2|8
257,232,50518,2,2,B|257:368,2,120
432,304,52518,5,6
192,304,53518,1,2
136,72,54518,5,6
256,72,55018,1,8
376,72,55518,1,2
288,160,56018,6,2,B|360:160|360:240,1,120
272,312,57018,2,0,B|192:304|200:224,1,120,8|2
112,152,58018,1,8
192,64,58518,5,6
432,64,59518,1,2
365,269,60518,6,0,B|255:357|140:265,3,240,4|2|4|2
200,176,64018,1,8
256,80,64518,1,6
152,88,72018,5,8
256,120,72518,1,6
360,88,73018,1,8
384,192,73518,1,0
360,296,74018,1,8
256,336,74518,2,6,B|136:336|40:240|96:80|152:64,1,360,6|8
256,88,76518,5,6
256,296,77518,1,2
299,190,78518,2,8,B|179:190,1,90
224,112,79268,2,0,B|296:112,1,60,8|8
256,8,80018,5,6
152,32,80518,1,0
64,96,81018,1,8
24,192,81518,1,6
128,176,82018,1,2
232,152,82518,5,6
336,176,83018,1,8
424,240,83518,1,6
464,336,84018,1,2
376,312,84518,6,8,B|128:312,1,240,6|6
136,312,88018,1,2
136,208,88518,6,0,B|136:72,1,120,4|8
256,96,89518,1,2
256,200,90018,1,2
376,208,90518,6,0,B|376:72,1,120,4|8
256,96,91518,1,2
256,200,92018,1,2
256,304,92518,5,8
256,80,94518,1,6
96,224,97018,5,2
200,224,97519,1,6
312,224,98019,1,2
416,224,98519,1,2
368,128,99019,6,8,B|368:56|296:16,1,120,8|6
198,26,100019,2,8,B|144:56|144:128,1,120,2|2
128,224,101019,6,6,B|224:336,1,120
306,316,102019,2,0,B|385:225,1,120,8|2
328,120,103019,5,8
458,128,103519,2,2,B|432:48|248:-40|88:48|48:136,1,480,2|6
32,240,106019,6,0,B|168:240,1,120,8|2
200,344,107019,2,0,B|336:344,1,120,2|6
360,240,108019,2,2,B|480:240,2,120,2|2|2
256,192,109519,6,0,B|192:128|256:-8|360:24,1,240,6|2
339,129,111019,1,2
256,192,111519,2,0,B|320:256|256:392|152:360,1,240,6|2
173,255,113019,1,2
136,152,113519,6,0,B|392:152,1,240,6|6
464,88,115019,1,8
376,24,115519,2,0,B|120:24,1,240,6|6
48,88,117019,5,8
72,192,117519,1,6
128,280,118019,1,8
200,360,118519,1,2
312,360,119019,5,8
384,280,119519,1,6
440,192,120019,1,2
464,88,120519,1,2
360,24,121019,6,2,B|232:24,1,120,2|6
152,104,122019,2,2,B|280:104,1,120
360,104,123019,5,8
320,208,123519,1,6
192,208,124019,1,6
152,104,124519,1,2
256,120,125019,1,2
256,240,125519,6,2,B|248:344|104:360|48:296,1,240,6|2
144,224,127019,1,2
256,144,127519,6,2,B|264:40|408:24|464:88,1,240,6|2
368,160,129019,1,2
440,256,129519,6,0,B|384:304|312:304,1,120,4|8
208,304,130519,2,0,B|184:272|152:312,2,60,2|0|6
256,208,131519,5,0
192,128,132019,1,8
320,112,132519,1,0
256,32,133019,2,6,B|256:64,1,30,6|2
168,40,133519,5,4
96,112,134019,1,8
96,216,134519,2,2,B|96:296|176:296,1,120
280,312,135519,6,4,B|368:288|400:200|352:120,1,240,4|8
256,72,137019,1,6
152,88,137519,6,4,B|16:88|16:344|176:344,1,360,4|8
264,344,139519,2,0,B|400:344|400:88|240:88,1,360,4|8
256,192,141519,12,4,146769
256,112,147769,5,4
376,112,148519,1,8
136,112,149519,1,8
256,328,151519,5,2
256,328,152019,1,6
344,272,152519,2,0,B|384:208|328:136,1,120,8|2
256,88,153519,2,0,B|216:152|272:224,3,120,8|2|2|2
200,296,155519,5,8
112,240,156019,1,6
56,144,156519,1,8
64,40,157019,1,2
152,96,157519,5,8
200,192,158019,2,0,B|336:192,2,120,6|8|2
168,296,159519,5,2
256,344,160019,2,0,B|384:344,1,120,6|2
376,248,161019,2,0,B|248:248,1,120,6|2
144,168,162019,2,0,B|135:82|255:-30|375:82|367:170,1,360,6|2
320,304,164019,6,0,B|456:304|472:144,1,240,4|2
352,120,165519,1,2
280,216,166019,6,0,B|144:216|128:56,1,240,4|2
256,96,167519,1,2
368,96,168019,5,6
152,96,169019,1,2
139,311,170019,2,4,B|257:358|386:307,2,240,4|4|6
256,128,173019,1,2
432,248,174019,5,2
328,248,174519,1,8
224,248,175019,1,6
120,208,175519,6,2,B|128:136|216:120,1,120
304,112,176519,2,0,B|376:112|424:176,1,120,8|2
448,264,177519,1,8
360,320,178019,2,4,B|144:392|16:216,1,360,6|6
104,152,180019,5,6
312,96,181019,1,2
312,200,181519,1,2
312,304,182019,5,6
104,248,183019,1,2
104,352,183519,1,2
16,288,184019,5,4
16,184,184519,2,0,B|24:32|184:64,2,240,2|2|2
120,152,187019,1,0
256,136,187519,6,6,B|256:264,1,120
360,296,188519,6,4,B|432:272|400:216|344:192|320:144|384:96,2,240,6|6|6
256,136,191269,6,2,B|256:240,2,90,2|2|6
204,40,192519,5,2
308,40,193019,1,0
384,120,193519,5,8
464,192,194019,2,0,B|480:352|312:328,1,240,6|2
256,240,195519,1,4
256,136,196019,5,4
72,248,197019,1,6
152,320,197519,1,2
256,320,198019,6,2,B|408:320|464:176,1,240
344,192,199519,1,2
240,192,200019,1,4
