osu file format v5

[General]
AudioFilename: Programmed to Fight_Crashman.mp3
AudioLeadIn: 0
PreviewTime: -1
Countdown: 0
SampleSet: Normal
StackLeniency: 0.7
Mode: 0
LetterboxInBreaks: 0

[Editor]
Bookmarks: 65513
DistanceSpacing: 0.800000011920929
BeatDivisor: 2
GridSize: 32

[Metadata]
Title:Programmed to Fight: CrashMan
Artist:The Megas
Creator:MegaTailzChao
Version:Normal
Source:http://themegas.com
Tags:megaman crashman

[Difficulty]
HPDrainRate:3
CircleSize:4
OverallDifficulty:5
SliderMultiplier:1.4
SliderTickRate:1

[Events]
//Background and Video events
0,0,"bg.PNG"
//Break Periods
2,31693,47041
2,79185,111031
//Storyboard Layer 0 (Background)
//Storyboard Layer 1 (Fail)
//Storyboard Layer 2 (Pass)
//Storyboard Layer 3 (Foreground)
//Storyboard Sound Samples
//Background Colour Transformations
3,100,255,0,19

[TimingPoints]
0,499.916680553241,4,1,0,100,1,0

[Colours]
Combo1 : 248,40,0
Combo2 : 255,255,255
Combo3 : 51,93,255

[HitObjects]
192,192,16247,1,0
288,192,16747,1,0
384,192,17247,2,0,B|352:320|224:288,1,210
192,256,18246,1,0
128,224,18496,1,0
96,128,18996,1,0
96,64,19246,1,0
448,32,19996,5,0
448,96,20246,1,0
448,192,20746,1,0
448,288,21246,2,0,B|320:256|320:160,1,140
160,64,22246,5,0
96,64,22496,2,0,B|96:160|224:192,1,140
224,160,23246,1,0
256,320,23996,5,0
256,256,24245,2,0,B|256:96,3,140
192,96,25995,1,0
256,64,26245,1,0
320,96,26495,1,0
256,192,26995,2,0,B|256:288,1,70
64,64,28245,5,0
128,160,28745,1,0
192,160,28995,1,0
256,192,29245,1,0
352,192,29745,1,0
416,192,29995,2,0,B|384:64|256:64,1,210
160,64,31244,2,0,B|64:64,1,70
256,192,48241,5,0
320,192,48491,1,0
384,192,48741,2,0,B|384:288|320:256,1,70
352,320,49241,2,0,B|320:256|256:256,1,70
224,256,49741,1,0
64,96,50241,6,0,B|128:160|224:64,1,140
448,96,51241,6,0,B|384:160|320:96,1,140
256,96,51991,6,0,B|256:160,3,35
256,160,52491,2,0,B|256:224,1,35
256,352,52991,1,0
256,288,53241,1,0
64,32,53991,6,0,B|64:128,1,70
64,160,54490,1,0
64,224,54740,2,0,B|64:320,1,70
64,352,55240,1,0
256,32,56240,5,0
288,96,56490,1,0
224,96,56740,2,0,B|256:160,1,70
256,224,57240,2,0,B|256:320|352:256|352:160,1,140
128,64,58240,5,0
384,64,58740,1,0
384,320,59240,1,0
128,320,59740,1,0
128,256,59990,6,0,B|128:192|224:224,2,70
96,256,60614,1,0
32,256,60989,2,0,B|32:128,1,70
416,32,61989,5,0
416,64,62114,2,0,B|416:128,1,35
416,160,62489,1,0
416,224,62739,2,0,B|416:320,1,70
416,352,63239,1,0
352,352,63489,6,0,B|288:352,5,35
288,352,64239,5,0
192,352,64739,1,0
96,352,65239,1,0
64,128,65989,5,0
128,128,66238,2,0,B|288:128,1,140
320,128,66988,1,0
384,160,67238,1,0
416,288,67988,5,0
352,288,68238,1,0
256,288,68738,2,0,B|192:256|224:192,1,70
224,192,69238,1,0
96,64,69738,5,0
160,96,69988,1,0
224,96,70238,2,0,B|288:64|384:96,1,140
416,128,70988,1,0
416,192,71238,1,0
416,320,71988,5,0
352,320,72237,2,0,B|288:288|256:192,3,140
224,192,73987,1,0
160,192,74237,1,0
96,192,74487,1,0
64,96,74987,2,0,B|160:96,1,70
448,64,76237,5,0
448,128,76487,1,0
448,224,76987,2,0,B|352:224,1,70
256,224,77737,5,0
224,192,77987,1,0
192,160,78236,2,0,B|96:160|64:320,1,210
128,64,112231,5,0
256,64,112731,1,0
352,64,113106,1,0
352,96,113231,1,0
352,160,113481,1,0
352,256,113981,1,0
288,288,114230,1,0
64,160,115230,5,0
128,160,115480,1,0
192,160,115730,1,4
224,128,115855,1,4
384,64,116230,5,0
256,64,116730,1,0
160,64,117105,1,0
160,96,117230,1,0
160,160,117480,1,0
160,256,117980,1,0
224,288,118229,1,0
448,160,119229,5,0
384,160,119479,1,0
320,160,119729,1,4
288,128,119854,1,4
256,32,120229,5,0
256,128,120729,1,0
256,224,121104,1,0
256,256,121229,2,0,B|256:352,2,70
256,128,122229,1,0
96,64,123229,5,0
96,128,123479,1,0
96,192,123729,2,4,B|128:160,1,35
256,32,124229,5,0
256,128,124729,1,0
256,224,125104,1,0
256,256,125229,2,0,B|256:352,1,70
256,192,125979,1,0
224,128,126228,2,4,B|192:96,1,35
256,64,126603,2,4,B|320:64,1,35
352,96,126978,2,4,B|320:128,1,35
256,192,128228,12,4,131728
192,192,131978,5,0
256,192,132227,1,4
320,224,132477,1,4
416,192,132977,2,4,B|416:64,1,70
256,192,133977,5,4
192,224,134227,1,4
160,288,134477,1,4
96,288,134727,2,4,B|32:160|96:96,1,140,4|4
256,192,136227,12,4,139726
192,192,139976,5,0
256,192,140226,1,4
320,224,140476,1,4
416,192,140976,2,4,B|416:64,1,70
256,192,141976,5,4
192,224,142226,1,4
160,288,142476,1,4
192,352,142726,1,4
256,352,142976,1,4
320,352,143226,1,4
416,64,144225,6,0,B|256:96,1,140
160,64,145225,2,4,B|0:96,1,140
64,192,146225,6,0,B|256:224,1,140
320,192,147225,2,8,B|512:224,1,140
448,256,147975,1,8
416,320,148225,6,0,B|256:288,1,140
160,320,149225,2,4,B|0:288,1,140
64,192,150224,6,0,B|224:160,1,140
320,192,151224,2,8,B|512:128,1,140
448,96,151974,1,8
416,64,152224,6,0,B|256:32,1,140
160,64,153224,2,4,B|0:32,1,140
64,192,154224,6,0,B|256:160,1,140
320,192,155224,2,8,B|512:160,1,140
448,224,155974,1,8
416,256,156223,6,0,B|256:224,1,140
160,256,157223,2,4,B|0:224,1,140
64,160,158223,6,0,B|224:128,1,140
320,160,159223,2,8,B|480:128,1,140
416,64,160223,6,0,B|480:192|384:352,2,280
320,64,162722,1,2
256,160,163222,1,2
192,64,163722,1,2
64,64,164222,6,0,B|0:192|96:352,2,280
160,64,166721,1,2
256,128,167221,1,2
352,64,167721,1,2
480,64,168221,6,0,B|480:352|32:384|32:64,1,700
256,64,171221,1,8
256,192,172221,12,4,176220
