osu file format v14

[General]
AudioFilename: The Macy Kate Band & Kurt Schneider - Radioactive (Nightcore Mix).mp3
AudioLeadIn: 0
PreviewTime: 126248
Countdown: 0
SampleSet: Soft
StackLeniency: 0.7
Mode: 0
LetterboxInBreaks: 0
WidescreenStoryboard: 1

[Editor]
Bookmarks: 23739,24275,33918,34096,46596,58025,68203,69453,80882,92310,103739,125891,138748
DistanceSpacing: 0.9
BeatDivisor: 4
GridSize: 4
TimelineZoom: 1

[Metadata]
Title:Radioactive (Nightcore Mix)
TitleUnicode:Radioactive (Nightcore Mix)
Artist:The Macy Kate Band & Kurt Schneider
ArtistUnicode:The Macy Kate Band & Kurt Schneider
Creator:Lally
Version:Insane
Source:
Tags:Imagine Dragons cover -Bakari- Nemis Andrea osuplayer111 Gero XinCrin
BeatmapID:307431
BeatmapSetID:119788

[Difficulty]
HPDrainRate:8
CircleSize:4
OverallDifficulty:7
ApproachRate:9
SliderMultiplier:1.8
SliderTickRate:1

[Events]
//Background and Video events
0,0,"o8o.jpg",0,0
//Break Periods
2,106596,121006
//Storyboard Layer 0 (Background)
//Storyboard Layer 1 (Fail)
//Storyboard Layer 2 (Pass)
//Storyboard Layer 3 (Foreground)
Sprite,Foreground,Centre,"SB\Lally.png",320,240 M,0,11953,,506,423 S,0,11953,12221,0.6693335,0.8506668 F,0,11953,12311,0,1 S,0,12221,12311,0.8506668,1.170666 S,0,12311,12489,1.170666,0.7013333 F,0,12311,22310,1,0.9776536 F,0,22310,23739,0.9776536,0
Sprite,Foreground,Centre,"SB\-Bakari-.png",320,240 M,0,23739,,509,429 F,0,23739,23918,0,1 S,0,23739,23918,0.914667,0.7013333 F,0,23918,33560,1,0.9451523 S,0,23918,33560,0.7013333 F,0,33560,,0.9451523 F,0,33560,33739,0.9451523,0 S,0,33560,33918,0.7013333,0.1
Sprite,Foreground,Centre,"SB\Lally.png",320,240 M,0,33918,,505,430 F,0,33918,34096,0,1 S,0,33918,34096,0.3706665,0.7866663 S,0,34096,35078,0.7866663 F,0,34096,35168,1,0.9831461 S,0,35078,35168,0.7866663,1.031999 S,0,35168,35257,1.031999,0.7866663 F,0,35168,45882,0.9831461 F,0,45882,46239,0.9831461,0
Sprite,Foreground,Centre,"SB\Gero.png",320,240 M,0,46239,,502,429 S,0,46239,46418,0.7226669 F,0,46239,46596,0,1 S,0,46418,46596,0.7226669,0.9146667 S,0,46596,46685,0.9146667,0.7226669 F,0,46596,57310,1 F,0,57310,,1 F,0,57310,57846,1,0
Sprite,Foreground,Centre,"SB\Lally.png",320,240 M,0,57846,,489,429 F,0,57846,58025,0,1 S,0,57846,58025,0.7013333,0.978667 S,0,58025,58203,0.978667,0.7013333 F,0,58025,67132,1 F,0,67132,68025,1,0
Sprite,Foreground,Centre,"SB\XinCrin.png",320,240 M,0,68203,,485,427 S,0,68203,69364,0.6693335 F,0,68203,69453,0,1 S,0,69364,69453,0.6693335,0.7866669 S,0,69453,69543,0.7866669,0.6693335 F,0,69453,78025,1 F,0,78025,78739,1,0 F,0,78739,,0
Sprite,Foreground,Centre,"SB\BL.png",320,240 M,0,79096,,480,422 F,0,79096,79453,0,1 S,0,79096,80793,0.7440003 F,0,79453,91775,1 S,0,80793,80882,0.7440003,0.8826669 S,0,80882,80971,0.8826669,0.7440003 F,0,91775,92132,1,0
Sprite,Foreground,Centre,"SB\Lally.png",320,240 M,0,92132,,477,422 S,0,92132,92221,0.8079998 F,0,92132,92310,0,1 S,0,92221,92310,0.8079998,0.9466662 S,0,92310,92400,0.9466662,0.8079998 F,0,92310,103739,1 S,0,92400,103650,0.8079998 S,0,103650,103739,0.8079998,0.9999996 F,0,103739,106239,1,0 S,0,103739,106239,0.9999996,0.1786665
Sprite,Foreground,Centre,"SB\Lally.png",320,240 M,0,125891,,530,432 S,0,125891,126070,0.7866669 F,0,125891,127320,0,1 S,0,126070,,0.7866669 S,0,126070,126159,0.7866669,0.957333 S,0,126159,126248,0.957333,0.7866669 S,0,126248,126516,0.7866669 S,0,126516,126606,0.7866669,0.9466665 S,0,126606,126695,0.9466665,0.7866669 S,0,126695,126873,0.7866669 S,0,126873,126963,0.7866669,0.9786667 S,0,126963,127052,0.9786667,0.7866669 S,0,127052,127141,0.7866669 S,0,127141,127320,0.7866669,1.256 S,0,127320,127498,1.256,0.7866669 F,0,127320,138034,1,0.996501 S,0,127498,138034,0.7866669 S,0,138034,138302,0.7866669,1.085334 F,0,138034,138570,0.996501,0 S,0,138302,138570,1.085334,0.2320004
Sprite,Foreground,Centre,"SB\Nemis.png",320,240 M,0,138570,,514,429 F,0,138570,138748,0,1 S,0,138570,138748,0.1,0.7013336 S,0,138748,138838,0.7013336 F,0,138748,149820,1 F,0,149820,150266,1,0
//Storyboard Sound Samples

[TimingPoints]
12311,357.142857142857,4,3,0,60,1,0
12400,-100,4,3,0,60,0,0
33918,-100,4,2,0,50,0,0
35168,-90.9090909090909,4,1,1,80,0,1
58025,-100,4,1,0,80,0,0
58739,-100,4,3,0,60,0,0
67132,-100,4,3,0,30,0,0
68203,-100,4,3,0,5,0,0
69453,-100,4,3,0,60,0,0
79453,-100,4,2,0,50,0,0
80882,-90.9090909090909,4,1,1,80,0,1
103739,-90.9090909090909,4,1,0,40,0,0
103918,-90.9090909090909,4,1,0,20,0,0
105168,-90.9090909090909,4,1,0,10,0,0
106239,-90.9090909090909,4,1,0,5,0,0
106606,357.142857142857,4,1,0,70,1,0
121606,357.142857142857,4,1,0,30,1,0
125891,-100,4,1,0,5,0,0
126248,-90.9090909090909,4,2,0,50,0,0
127320,-83.3333333333333,4,1,1,80,0,1
150177,-83.3333333333333,4,2,0,40,0,0

[Colours]
Combo1 : 176,0,4
Combo2 : 172,249,205
Combo3 : 79,238,170
Combo4 : 9,255,46
Combo5 : 223,255,40

[HitObjects]
256,188,12311,21,4,0:0:0:0:
392,72,12668,2,0,L|470:28,1,90,8|0,0:0|0:0,0:0:0:0:
480,120,13025,2,0,L|401:163,1,90,8|0,1:0|0:0,0:0:0:0:
397,259,13382,2,0,L|476:216,1,90,2|0,0:0|0:0,0:0:0:0:
322,283,13739,54,0,P|386:339|464:304,1,180,4|0,0:0|0:0,0:0:0:0:
476,216,14275,2,0,P|440:180|380:176,1,90,0|8,0:0|1:0,0:0:0:0:
316,192,14632,2,0,P|324:136|364:96,1,90,0|4,0:0|0:0,0:0:0:0:
428,80,14989,1,0,0:0:0:0:
424,76,15078,1,0,0:0:0:0:
420,72,15168,6,0,P|364:24|264:76,1,180,4|8,0:0|0:0,0:0:0:0:
176,208,15703,2,0,L|226:133,1,90,0|8,0:0|1:0,0:0:0:0:
394,37,16061,2,0,L|344:112,1,90,0|2,0:0|0:0,0:0:0:0:
316,192,16418,1,0,0:0:0:0:
316,199,16507,1,0,0:0:0:0:
316,206,16596,54,0,P|356:254|476:218,1,180,4|8,0:0|0:0,0:0:0:0:
478,159,17132,2,0,P|434:162|397:188,1,90,0|8,0:0|1:0,0:0:0:0:
316,322,17489,2,0,P|279:347|235:350,1,90,0|4,0:0|0:0,0:0:0:0:
107,300,17846,2,0,P|143:274|188:272,1,90,0|4,0:0|0:0,0:0:0:0:
304,136,18382,5,8,0:0:0:0:
304,136,18561,2,0,P|328:72|368:48,1,90,0|8,0:0|1:0,0:0:0:0:
428,96,18918,2,0,P|404:160|364:184,1,90,0|2,0:0|0:0,0:0:0:0:
316,224,19275,1,0,0:0:0:0:
312,228,19364,1,0,0:0:0:0:
308,232,19453,54,0,P|256:272|152:224,1,180,4|8,0:0|0:0,0:0:0:0:
116,156,19989,2,0,P|76:108|24:100,1,90,0|8,0:0|1:0,0:0:0:0:
40,188,20346,2,0,L|40:292,1,90,0|4,0:0|0:0,0:0:0:0:
104,344,20703,1,0,0:0:0:0:
104,344,20882,2,0,P|128:276|248:260,1,180,4|8,0:0|0:0,0:0:0:0:
300,300,21418,2,0,P|364:324|412:296,1,90,0|0,0:0|0:0,0:0:0:0:
256,192,22310,12,4,23739,0:0:0:0:
256,180,24275,5,0,0:0:0:0:
384,160,24453,2,0,P|366:115|327:80,1,90,8|0,1:0|0:0,0:0:0:0:
174,86,24810,2,0,P|143:118|128:160,1,90,4|0,0:0|0:0,0:0:0:0:
212,288,25168,54,0,P|255:299|299:291,1,90,4|0,0:0|0:0,0:0:0:0:
380,248,25525,1,8,0:0:0:0:
384,160,25703,1,0,0:0:0:0:
375,151,25793,1,0,0:0:0:0:
367,143,25882,2,0,L|376:48,1,90,8|0,1:0|0:0,0:0:0:0:
288,192,26239,2,0,P|256:204|196:192,1,90,4|0,0:0|0:0,0:0:0:0:
72,96,26596,6,0,P|96:164|60:276,1,180,4|8,0:0|0:0,0:0:0:0:
0,304,27132,1,0,0:0:0:0:
68,352,27310,2,0,B|112:352|136:320|136:320|176:288|220:292|256:312,1,180,8|2,1:0|0:0,0:0:0:0:
384,352,27846,1,0,0:0:0:0:
372,340,28025,54,0,L|360:148,1,180,4|8,0:0|0:0,0:0:0:0:
368,148,28471,1,0,0:0:0:0:
376,136,28560,1,0,0:0:0:0:
176,88,28739,2,0,L|232:16,1,90,8|0,1:0|0:0,0:0:0:0:
216,160,29096,5,4,0:0:0:0:
200,172,29453,2,0,L|220:364,1,180,4|8,0:0|0:0,0:0:0:0:
308,372,29989,53,0,0:0:0:0:
384,244,30168,2,0,P|398:201|391:150,1,90,8|0,1:0|0:0,0:0:0:0:
290,79,30525,2,0,P|245:74|203:88,1,90,2|0,0:0|0:0,0:0:0:0:
179,262,30882,2,0,P|216:288|260:296,1,90,4|0,0:0|0:0,0:0:0:0:
296,212,31239,5,8,0:0:0:0:
372,160,31418,2,0,P|416:181|464:180,1,90,0|8,0:0|1:0,0:0:0:0:
512,116,31775,1,0,0:0:0:0:
428,92,31953,1,4,0:0:0:0:
420,92,32310,54,0,L|440:296,1,180,4|8,0:0|0:0,0:0:0:0:
408,356,32846,1,0,0:0:0:0:
276,280,33025,1,8,1:0:0:0:
188,300,33203,2,0,P|152:316|48:224,1,180,0|0,0:0|0:0,0:0:0:0:
40,232,33739,6,0,L|52:140,1,90,4|0,0:0|0:0,0:0:0:0:
128,104,34096,37,6,0:0:0:0:
132,108,34185,1,0,0:0:0:0:
136,112,34275,1,0,0:0:0:0:
140,116,34364,1,0,0:0:0:0:
144,120,34453,1,6,0:0:0:0:
148,124,34543,1,0,0:0:0:0:
152,128,34632,1,0,0:0:0:0:
156,132,34721,1,0,0:0:0:0:
160,136,34810,1,6,0:0:0:0:
164,140,34900,1,0,0:0:0:0:
168,144,34989,1,0,0:0:0:0:
172,148,35078,1,0,0:0:0:0:
176,152,35168,54,0,P|228:192|360:132,1,198.000006042481,4|2,0:0|0:0,0:0:0:0:
408,80,35703,2,0,P|452:36|496:32,1,99.0000030212403,0|8,0:0|0:0,0:0:0:0:
488,128,36060,2,0,P|444:172|400:176,1,99.0000030212403,0|2,0:0|0:0,0:0:0:0:
328,124,36418,1,2,0:0:0:0:
92,36,36596,54,0,P|40:92|72:224,1,198.000006042481,4|2,3:0|0:0,0:0:0:0:
128,272,37132,2,0,P|188:280|224:328,1,99.0000030212403,0|8,0:0|0:0,0:0:0:0:
392,212,37668,2,0,P|343:209|305:178,1,99.0000030212403,2|0,0:0|0:0,0:0:0:0:
380,116,38025,6,0,P|448:136|476:256,2,198.000006042481,4|2|8,3:0|0:0|0:0,0:0:0:0:
256,184,38918,1,0,0:0:0:0:
132,116,39096,2,0,P|64:136|36:256,2,198.000006042481,2|4|2,0:0|3:0|0:0,0:0:0:0:
232,116,39989,2,0,P|288:104|324:56,1,99.0000030212403,0|8,0:0|0:0,0:0:0:0:
464,352,40525,2,0,L|400:264,1,99.0000030212403,2|2,0:0|0:0,0:0:0:0:
293,275,40882,54,0,L|352:356,2,99.0000030212403,4|0|2,3:0|0:0|0:0,0:0:0:0:
248,188,41418,2,0,P|200:136|164:128,1,99.0000030212403,0|8,0:0|0:0,0:0:0:0:
14,20,41775,2,0,P|43:60|88:80,1,99.0000030212403,0|2,0:0|0:0,0:0:0:0:
248,188,42310,5,4,3:0:0:0:
293,275,42489,1,0,0:0:0:0:
352,196,42668,2,0,P|340:136|304:104,1,99.0000030212403,2|0,0:0|0:0,0:0:0:0:
152,172,43025,2,0,P|164:232|200:264,1,99.0000030212403,8|0,0:0|0:0,0:0:0:0:
236,344,43382,1,2,0:0:0:0:
332,364,43560,1,0,0:0:0:0:
339,365,43650,1,0,0:0:0:0:
346,367,43739,54,0,P|398:355|422:227,1,198.000006042481,4|2,3:0|0:0,0:0:0:0:
356,152,44275,2,0,P|320:104|320:40,1,99.0000030212403,0|8,0:0|0:0,0:0:0:0:
408,36,44632,2,0,P|444:84|444:148,1,99.0000030212403,0|2,0:0|0:0,0:0:0:0:
469,305,44989,2,0,P|437:268|428:220,1,99.0000030212403,0|4,0:0|3:0,0:0:0:0:
356,152,45346,6,0,P|280:112|244:124,1,99.0000030212403,0|2,0:0|0:0,0:0:0:0:
264,116,45614,1,0,0:0:0:0:
256,120,45703,2,0,P|207:114|171:81,1,99.0000030212403,0|8,0:0|0:0,0:0:0:0:
164,80,45971,1,0,0:0:0:0:
156,80,46060,2,0,L|112:172,1,99.0000030212403,0|2,0:0|0:0,0:0:0:0:
72,320,46418,53,0,0:0:0:0:
76,324,46507,1,0,0:0:0:0:
80,328,46596,2,0,P|126:343|171:323,1,99.0000030212403,4|0,0:0|0:0,0:0:0:0:
346,278,46953,2,0,P|302:259|256:274,1,99.0000030212403,2|0,0:0|0:0,0:0:0:0:
302,361,47310,2,0,P|394:361|436:273,1,198.000006042481,8|2,0:0|0:0,0:0:0:0:
381,192,47846,1,0,0:0:0:0:
451,121,48025,1,4,3:0:0:0:
354,101,48203,6,0,P|366:54|406:27,1,99.0000030212403,0|2,0:0|0:0,0:0:0:0:
451,121,48560,1,0,0:0:0:0:
381,192,48739,2,0,P|368:238|328:265,1,99.0000030212403,8|0,0:0|0:0,0:0:0:0:
238,307,49096,2,0,L|45:349,1,198.000006042481,2|4,0:0|3:0,0:0:0:0:
6,257,49632,5,0,0:0:0:0:
6,108,49810,1,2,0:0:0:0:
138,41,49989,1,0,0:0:0:0:
138,189,50168,2,0,L|236:170,1,99.0000030212403,8|0,0:0|0:0,0:0:0:0:
324,212,50525,2,0,P|368:295|323:379,1,198.000006042481,2|4,0:0|3:0,0:0:0:0:
271,295,51060,5,0,0:0:0:0:
371,126,51239,2,0,L|286:74,1,99.0000030212403,2|0,0:0|0:0,0:0:0:0:
163,115,51596,2,0,L|247:166,1,99.0000030212403,8|0,0:0|0:0,0:0:0:0:
201,32,51953,2,0,P|104:45|73:131,1,198.000006042481,2|4,0:0|3:0,0:0:0:0:
131,210,52489,6,0,P|84:232|38:224,2,99.0000030212403,0|2|0,0:0|0:0|0:0,0:0:0:0:
230,210,53025,2,0,B|232:262|193:292|193:292|212:338|277:343,1,198.000006042481,8|2,0:0|0:0,0:0:0:0:
375,339,53560,1,2,0:0:0:0:
468,192,53739,1,4,3:0:0:0:
375,35,53918,5,0,0:0:0:0:
312,104,54096,2,0,P|355:126|404:122,1,99.0000030212403,2|0,0:0|0:0,0:0:0:0:
214,79,54453,2,0,P|170:56|121:60,1,99.0000030212403,8|0,0:0|0:0,0:0:0:0:
256,188,54810,2,0,B|282:231|256:279|256:279|232:324|257:379,1,198.000006042481,2|4,0:0|3:0,0:0:0:0:
175,233,55346,6,0,B|133:207|133:207|84:207,1,99.0000030212403,0|2,0:0|0:0,0:0:0:0:
7,271,55703,1,0,0:0:0:0:
102,297,55882,2,0,L|173:108,2,198.000006042481,8|2|4,0:0|0:0|3:0,0:0:0:0:
172,367,56775,5,0,0:0:0:0:
256,315,56953,1,2,0:0:0:0:
340,367,57132,1,0,0:0:0:0:
409,297,57310,2,0,P|378:265|372:212,1,99.0000030212403,8|0,0:0|0:0,0:0:0:0:
344,116,57668,2,0,B|292:136|256:92|256:92|220:136|168:116,1,198.000006042481,2|4,0:0|0:0,0:0:0:0:
312,296,58382,5,0,0:0:0:0:
228,324,58560,1,0,0:0:0:0:
312,296,58739,6,0,P|252:236|216:240,1,90,12|0,0:0|0:0,0:0:0:0:
164,228,59096,2,0,L|44:224,1,90,2|0,0:0|0:0,0:0:0:0:
28,148,59453,2,0,P|60:92|200:104,1,180,4|8,0:0|0:0,0:0:0:0:
224,148,59989,2,0,P|268:180|324:176,1,90,0|8,0:0|1:0,0:0:0:0:
470,198,60346,2,0,P|436:169|392:164,1,90,0|4,0:0|0:0,0:0:0:0:
41,198,60882,6,0,P|96:232|208:184,1,180,4|8,0:0|0:0,0:0:0:0:
264,132,61418,2,0,P|304:96|348:96,1,90,0|8,0:0|1:0,0:0:0:0:
380,172,61775,2,0,P|340:208|296:208,1,90,0|2,0:0|0:0,0:0:0:0:
216,212,62132,1,0,0:0:0:0:
212,216,62221,1,0,0:0:0:0:
208,220,62310,6,0,P|164:226|133:258,2,90,4|0|8,0:0|0:0|0:0,0:0:0:0:
268,284,62846,2,0,L|344:340,1,90,0|8,0:0|1:0,0:0:0:0:
488,345,63203,2,0,L|416:292,1,90,0|4,0:0|0:0,0:0:0:0:
271,182,63560,2,0,L|344:236,1,90,0|4,0:0|0:0,0:0:0:0:
184,156,64096,6,0,P|228:104|336:120,2,180,8|8|2,0:0|1:0|0:0,0:0:0:0:
156,240,64989,2,0,P|120:292|80:304,1,90,0|4,0:0|0:0,0:0:0:0:
356,144,65525,2,0,P|392:92|432:80,1,90,8|0,0:0|0:0,0:0:0:0:
440,168,65882,2,0,P|404:220|364:232,1,90,8|0,1:0|0:0,0:0:0:0:
292,208,66239,2,0,P|240:176|156:248,1,180,4|4,0:0|0:0,0:0:0:0:
256,192,67132,12,0,68203,0:0:0:0:
40,312,69453,38,0,B|96:336|148:300|148:300|216:320,1,180,4|8,0:0|0:0,0:0:0:0:
272,252,69989,2,0,L|184:224,2,90,0|8|0,0:0|1:0|0:0,0:0:0:0:
360,240,70525,1,2,0:0:0:0:
424,304,70703,1,0,0:0:0:0:
472,228,70882,6,0,P|492:136|444:64,1,180,4|8,0:0|0:0,0:0:0:0:
374,108,71418,2,0,P|417:98|448:67,1,90,0|8,0:0|1:0,0:0:0:0:
304,44,71775,2,0,P|260:53|229:84,1,90,0|4,0:0|0:0,0:0:0:0:
180,220,72132,1,0,0:0:0:0:
268,244,72310,54,0,P|256:172|160:136,2,180,4|8|8,0:0|0:0|1:0,0:0:0:0:
236,328,73203,2,0,P|280:336|320:316,1,90,0|2,0:0|0:0,0:0:0:0:
152,304,73560,2,0,L|56:304,1,90,0|4,0:0|0:0,0:0:0:0:
20,224,73918,5,0,0:0:0:0:
100,184,74096,2,0,L|190:184,1,90,8|0,0:0|0:0,0:0:0:0:
346,239,74453,2,0,B|332:192|276:192|276:192|232:204|190:184,1,180,8|4,1:0|0:0,0:0:0:0:
200,99,74989,2,0,P|183:140|190:184,1,90,0|4,0:0|0:0,0:0:0:0:
320,124,75346,54,0,P|327:80|310:39,1,90,0|0,0:0|0:0,0:0:0:0:
200,100,75703,1,0,0:0:0:0:
112,120,75882,2,0,B|164:136|164:136|184:180|168:224|120:232,1,180,8|4,1:0|0:0,0:0:0:0:
140,320,76418,2,0,P|188:304|220:276,1,90,0|4,0:0|0:0,0:0:0:0:
264,200,76775,5,0,0:0:0:0:
332,140,76953,2,0,P|366:111|409:98,1,90,8|0,0:0|0:0,0:0:0:0:
332,244,77310,2,0,P|366:272|409:285,1,90,8|0,1:0|0:0,0:0:0:0:
490,192,77668,6,0,L|400:192,2,90,4|0|4,0:0|0:0|0:0,0:0:0:0:
256,192,78203,12,0,79453,0:0:0:0:
256,40,79810,5,6,0:0:0:0:
40,344,80168,1,6,0:0:0:0:
472,344,80525,2,0,P|424:344|388:320,1,90,6|0,0:0|0:0,0:0:0:0:
452,260,80882,1,4,0:0:0:0:
352,112,81239,6,0,P|352:164|384:196,1,99.0000030212403,2|0,0:0|0:0,0:0:0:0:
256,344,81596,2,0,L|256:240,1,99.0000030212403,8|0,0:0|0:0,0:0:0:0:
160,112,81953,2,0,P|160:164|128:196,1,99.0000030212403,2|2,0:0|0:0,0:0:0:0:
60,260,82310,1,4,3:0:0:0:
256,344,82668,1,2,0:0:0:0:
452,260,83025,1,8,0:0:0:0:
336,124,83382,1,2,0:0:0:0:
256,88,83560,1,0,0:0:0:0:
176,124,83739,6,0,P|76:124|20:196,1,198.000006042481,4|2,3:0|0:0,0:0:0:0:
80,264,84275,2,0,P|132:264|172:296,1,99.0000030212403,0|8,0:0|0:0,0:0:0:0:
256,308,84632,1,0,0:0:0:0:
343,290,84810,2,0,P|383:262|432:264,1,99.0000030212403,2|2,0:0|0:0,0:0:0:0:
492,196,85168,2,0,P|431:121|336:124,1,198.000006042481,4|2,3:0|0:0,0:0:0:0:
180,36,85882,2,0,P|128:36|88:64,1,99.0000030212403,8|0,0:0|0:0,0:0:0:0:
28,128,86239,6,0,P|91:191|28:256,1,198.000006042481,2|4,0:0|3:0,0:0:0:0:
90,322,86775,2,0,P|131:348|180:348,1,99.0000030212403,0|2,0:0|0:0,0:0:0:0:
256,304,87132,1,0,0:0:0:0:
332,348,87310,2,0,P|404:280|404:184,1,198.000006042481,8|2,0:0|0:0,0:0:0:0:
300,40,88025,6,0,L|360:124,1,99.0000030212403,4|0,3:0|0:0,0:0:0:0:
212,40,88382,2,0,L|152:124,1,99.0000030212403,2|0,0:0|0:0,0:0:0:0:
256,128,88739,2,0,L|256:332,1,198.000006042481,8|2,0:0|0:0,0:0:0:0:
424,264,89453,5,4,3:0:0:0:
480,192,89632,1,0,0:0:0:0:
424,120,89810,2,0,P|372:120|332:96,1,99.0000030212403,2|0,0:0|0:0,0:0:0:0:
256,48,90168,2,0,B|164:48|164:104|64:104,1,198.000006042481,8|2,0:0|0:0,0:0:0:0:
20,276,90882,6,0,P|72:276|112:308,1,99.0000030212403,4|0,3:0|0:0,0:0:0:0:
172,368,91239,1,2,0:0:0:0:
236,308,91418,1,0,0:0:0:0:
176,244,91596,2,0,P|256:184|348:212,1,198.000006042481,8|2,0:0|0:0,0:0:0:0:
412,264,92132,1,0,0:0:0:0:
460,192,92310,6,0,P|472:132|456:88,1,99.0000030212403,4|0,0:0|0:0,0:0:0:0:
412,264,92668,2,0,P|400:324|416:368,1,99.0000030212403,2|0,0:0|0:0,0:0:0:0:
372,188,93025,2,0,P|324:152|232:176,1,148.50000453186,8|0,0:0|0:0,0:0:0:0:
216,204,93382,2,0,L|128:124,1,99.0000030212403,2|0,0:0|0:0,0:0:0:0:
196,276,93739,6,0,L|284:356,1,99.0000030212403,4|0,3:0|0:0,0:0:0:0:
224,116,94096,2,0,L|136:36,1,99.0000030212403,2|0,0:0|0:0,0:0:0:0:
112,296,94453,2,0,L|185:362,1,99.0000030212403,8|0,0:0|0:0,0:0:0:0:
185,362,94810,1,2,0:0:0:0:
195,39,95168,5,4,3:0:0:0:
375,239,95346,1,0,0:0:0:0:
112,296,95525,1,2,0:0:0:0:
148,172,95703,5,0,0:0:0:0:
286,133,95882,1,8,0:0:0:0:
251,271,96060,1,0,0:0:0:0:
232,192,96239,5,2,0:0:0:0:
279,324,96596,5,4,3:0:0:0:
459,124,96774,1,0,0:0:0:0:
196,67,96953,1,2,0:0:0:0:
232,191,97131,5,0,0:0:0:0:
370,230,97310,1,8,0:0:0:0:
335,92,97488,1,0,0:0:0:0:
316,171,97667,5,2,0:0:0:0:
279,324,98025,2,0,P|215:287|148:299,1,99.0000030212403,4|0,3:0|0:0,0:0:0:0:
112,248,98382,2,0,L|72:132,1,99.0000030212403,2|0,0:0|0:0,0:0:0:0:
132,36,98739,2,0,L|172:152,1,99.0000030212403,8|0,0:0|0:0,0:0:0:0:
200,212,99096,2,0,P|256:232|344:200,1,148.50000453186,2|0,0:0|0:0,0:0:0:0:
360,164,99453,6,0,L|360:296,1,99.0000030212403,4|0,3:0|0:0,0:0:0:0:
428,208,99810,2,0,L|428:340,1,99.0000030212403,2|0,0:0|0:0,0:0:0:0:
496,248,100168,2,0,L|496:380,1,99.0000030212403,8|0,0:0|0:0,0:0:0:0:
496,347,100525,1,2,0:0:0:0:
288,136,100882,6,0,P|328:92|396:96,1,99.0000030212403,4|0,3:0|0:0,0:0:0:0:
352,296,101239,2,0,P|312:340|244:336,1,99.0000030212403,2|0,0:0|0:0,0:0:0:0:
228,188,101596,2,0,P|207:132|243:73,1,99.0000030212403,8|0,0:0|0:0,0:0:0:0:
412,244,101953,2,0,P|432:299|396:358,1,99.0000030212403,2|0,0:0|0:0,0:0:0:0:
248,264,102310,6,0,P|208:308|140:304,1,99.0000030212403,4|0,3:0|0:0,0:0:0:0:
184,104,102667,2,0,P|224:60|292:64,1,99.0000030212403,2|0,0:0|0:0,0:0:0:0:
308,212,103024,2,0,P|328:267|292:326,1,99.0000030212403,8|0,0:0|0:0,0:0:0:0:
124,156,103381,2,0,P|103:100|139:41,2,99.0000030212403,2|2|4,0:0|0:0|0:0,0:0:0:0:
256,192,103918,12,0,106239,0:0:0:0:
256,192,121606,12,0,125891,0:0:0:0:
107,270,126248,5,6,0:0:0:0:
404,113,126606,1,6,0:0:0:0:
334,340,126963,1,6,0:0:0:0:
177,43,127320,6,0,P|112:44|64:192,1,215.999993408203,4|2,0:0|0:0,0:0:0:0:
104,260,127856,2,0,P|144:204|216:192,1,107.999996704102,0|8,0:0|0:0,0:0:0:0:
408,124,128213,2,0,P|368:180|296:192,1,107.999996704102,0|2,0:0|0:0,0:0:0:0:
91,77,128570,2,0,P|144:84|184:120,1,107.999996704102,0|4,0:0|3:0,0:0:0:0:
420,306,128927,2,0,P|367:299|328:264,1,107.999996704102,0|2,0:0|0:0,0:0:0:0:
183,121,129284,2,0,P|236:128|276:164,1,107.999996704102,0|8,0:0|0:0,0:0:0:0:
164,348,129820,54,0,P|212:296|252:292,1,107.999996704102,2|0,0:0|0:0,0:0:0:0:
256,288,130088,1,0,0:0:0:0:
264,284,130177,2,0,L|344:124,1,161.999995056153,4|0,3:0|0:0,0:0:0:0:
344,132,130534,1,2,0:0:0:0:
452,144,130713,1,0,0:0:0:0:
344,132,130891,2,0,L|232:120,1,107.999996704102,8|0,0:0|0:0,0:0:0:0:
120,56,131248,1,2,0:0:0:0:
52,172,131427,5,2,0:0:0:0:
60,180,131516,1,0,0:0:0:0:
64,188,131606,2,0,P|116:224|108:328,1,161.999995056153,4|0,3:0|0:0,0:0:0:0:
104,324,131963,2,0,L|264:328,2,107.999996704102,2|0|8,0:0|0:0|0:0,0:0:0:0:
408,324,132677,2,0,L|248:328,1,107.999996704102,2|2,0:0|0:0,0:0:0:0:
408,324,133034,54,0,P|368:232|272:216,1,161.999995056153,4|0,3:0|0:0,0:0:0:0:
304,208,133391,1,2,0:0:0:0:
200,240,133570,1,0,0:0:0:0:
240,140,133748,2,0,P|296:64|332:52,1,107.999996704102,8|0,0:0|0:0,0:0:0:0:
200,240,134106,2,0,P|144:316|108:328,1,107.999996704102,2|2,0:0|0:0,0:0:0:0:
128,324,134373,1,0,0:0:0:0:
120,328,134463,6,0,P|192:312|292:360,1,161.999995056153,4|0,3:0|0:0,0:0:0:0:
280,348,134820,1,2,0:0:0:0:
408,324,134998,1,0,0:0:0:0:
328,236,135177,2,0,P|328:168|424:92,1,161.999995056153,8|0,0:0|0:0,0:0:0:0:
396,96,135534,1,2,0:0:0:0:
492,48,135713,1,2,0:0:0:0:
396,96,135891,54,0,P|328:96|224:72,1,161.999995056153,4|0,3:0|0:0,0:0:0:0:
228,72,136248,1,2,0:0:0:0:
96,24,136427,1,0,0:0:0:0:
64,164,136606,1,8,0:0:0:0:
204,204,136784,2,0,P|264:216|312:288,1,107.999996704102,0|2,0:0|0:0,0:0:0:0:
360,336,137141,1,0,0:0:0:0:
252,332,137320,6,0,P|276:268|376:224,1,161.999995056153,4|0,3:0|0:0,0:0:0:0:
364,224,137677,1,2,0:0:0:0:
468,252,137856,1,0,0:0:0:0:
464,360,138034,1,8,0:0:0:0:
360,336,138213,2,0,P|300:308|240:340,1,107.999996704102,0|2,0:0|0:0,0:0:0:0:
312,136,138748,54,0,P|320:72|296:16,1,107.999996704102,4|0,2:0|0:0,0:0:0:0:
224,96,139106,2,0,P|216:160|240:216,1,107.999996704102,2|0,0:0|0:0,0:0:0:0:
328,240,139463,2,0,P|264:224|168:264,1,161.999995056153,8|0,0:0|0:0,0:0:0:0:
184,264,139820,2,0,L|72:240,1,107.999996704102,2|0,0:0|0:0,0:0:0:0:
328,240,140177,5,4,3:0:0:0:
432,216,140356,1,0,0:0:0:0:
456,320,140534,1,2,0:0:0:0:
352,344,140713,1,0,0:0:0:0:
392,280,140891,2,0,P|336:272|224:304,1,161.999995056153,8|0,0:0|0:0,0:0:0:0:
328,240,141248,2,0,L|352:128,1,107.999996704102,2|0,0:0|0:0,0:0:0:0:
192,48,141606,53,4,3:0:0:0:
80,64,141784,1,0,0:0:0:0:
96,176,141963,5,2,0:0:0:0:
208,160,142141,1,0,0:0:0:0:
144,112,142320,53,8,0:0:0:0:
16,168,142498,1,0,0:0:0:0:
128,256,142677,2,0,P|168:208|152:112,1,161.999995056153,0|0,0:0|0:0,0:0:0:0:
144,112,143034,5,4,3:0:0:0:
128,256,143213,1,0,0:0:0:0:
264,272,143391,1,2,0:0:0:0:
280,128,143570,1,0,0:0:0:0:
200,192,143748,53,8,0:0:0:0:
232,368,143927,1,0,0:0:0:0:
368,256,144106,1,2,0:0:0:0:
264,272,144284,1,2,0:0:0:0:
264,272,144373,1,0,0:0:0:0:
264,272,144463,6,0,P|216:288|136:272,1,107.999996704102,4|0,3:0|0:0,0:0:0:0:
200,192,144820,2,0,P|248:176|328:192,1,107.999996704102,2|0,0:0|0:0,0:0:0:0:
368,256,145177,2,0,P|336:208|352:104,1,161.999995056153,8|0,0:0|0:0,0:0:0:0:
344,96,145534,1,2,0:0:0:0:
432,168,145713,1,0,0:0:0:0:
344,96,145891,54,0,L|232:80,1,107.999996704102,4|0,3:0|0:0,0:0:0:0:
88,144,146248,1,2,0:0:0:0:
96,248,146427,1,0,0:0:0:0:
336,104,146606,2,0,L|176:80,1,161.999995056153,8|0,0:0|0:0,0:0:0:0:
88,144,146963,2,0,L|-24:160,1,107.999996704102,2|0,0:0|0:0,0:0:0:0:
232,184,147320,5,4,3:0:0:0:
208,296,147498,1,0,0:0:0:0:
320,320,147677,1,2,0:0:0:0:
344,208,147855,1,0,0:0:0:0:
176,232,148034,53,8,0:0:0:0:
288,344,148213,1,2,0:0:0:0:
320,192,148391,1,2,0:0:0:0:
320,192,148748,5,4,3:0:0:0:
360,352,148927,1,0,0:0:0:0:
512,312,149106,1,2,0:0:0:0:
472,152,149285,1,0,0:0:0:0:
416,256,149463,53,8,0:0:0:0:
408,264,149820,2,0,L|360:272,1,45,2|0,0:0|0:0,0:0:0:0:
56,312,150177,1,2,0:0:0:0:
