osu file format v9

[General]
AudioFilename: you'll never have it.mp3
AudioLeadIn: 0
PreviewTime: -1
Countdown: 0
SampleSet: Soft
StackLeniency: 0.5
Mode: 0
LetterboxInBreaks: 1

[Editor]
Bookmarks: 11823,34680,57537,80395,87888,91281,94942,103252,114680,126109,137537,147888
DistanceSpacing: 0.2
BeatDivisor: 4
GridSize: 8

[Metadata]
Title:I Just Had Sex
Artist:The Lonely Island Ft. Akon
Creator:TKiller
Version:Collab
Source:
Tags:Natteke Priestess In Yellow Rena Rena-chan La Cataline

[Difficulty]
HPDrainRate:7
CircleSize:4
OverallDifficulty:7
ApproachRate:8
SliderMultiplier:1.6
SliderTickRate:1

[Events]
//Background and Video events
0,0,"oh yeah.jpg"
Video,0,"I Just Had Sex (feat. Akon)-1.flv"
//Break Periods
//Storyboard Layer 0 (Background)
//Storyboard Layer 1 (Fail)
//Storyboard Layer 2 (Pass)
//Storyboard Layer 3 (Foreground)
//Storyboard Sound Samples
//Background Colour Transformations
3,100,163,162,255

[TimingPoints]
389,357.142857142857,4,2,1,80,1,0
36460,-151.515151515152,4,2,1,80,0,0
36817,-100,4,2,1,80,0,0
37085,-100,4,1,1,45,0,0
37263,-100,4,2,1,80,0,0
39942,-100,4,1,1,45,0,0
40121,-100,4,2,1,80,0,0
56638,-100,4,2,1,0,0,0
57174,-100,4,2,1,80,0,0
78603,-200,4,2,1,80,0,0
78960,-100,4,2,1,80,0,0
83513,-100,4,1,1,45,0,0
84763,-100,4,2,1,80,0,0
87442,-100,4,2,1,45,0,0
88156,-100,4,2,1,80,0,0
88692,-100,4,1,1,45,0,0
89049,-100,4,2,1,80,0,0
89406,-100,4,1,1,45,0,0
89763,-100,4,2,1,80,0,0
90121,-100,4,1,1,45,0,0
91281,-100,4,2,1,80,0,0
115567,-100,4,1,1,45,0,0
116996,-100,4,2,1,80,0,0
118513,-100,4,1,1,45,0,0
119942,-100,4,2,1,80,0,0
121460,-100,4,1,1,45,0,0
122621,-100,4,2,1,80,0,0
124228,-100,4,1,1,67,0,0
124496,-100,4,2,1,0,0,0
124674,-100,4,1,1,67,0,0
124853,-100,4,2,1,80,0,0
130567,-100,4,2,1,40,0,0
130924,-100,4,2,1,50,0,0
131281,-100,4,2,1,60,0,0
131638,-100,4,2,1,70,0,0
131996,-100,4,2,1,80,0,0
136460,-100,4,1,1,30,0,0
136549,-100,4,1,1,35,0,0
136638,-100,4,1,1,40,0,0
136728,-100,4,1,1,45,0,0
136817,-100,4,1,1,50,0,0
136906,-100,4,1,1,55,0,0
136996,-100,4,1,1,60,0,0
137085,-100,4,1,1,65,0,0
137174,-100,4,1,1,70,0,0
137263,-100,4,1,1,75,0,0
137355,-100,4,1,1,80,0,0
137442,-100,4,1,1,85,0,0
137531,-83.3333333333333,4,1,1,50,0,0
149138,-66.6666666666667,4,1,1,50,0,0
157531,-66.6666666666667,4,1,1,20,0,0
158246,-66.6666666666667,4,1,1,50,0,0
160121,-66.6666666666667,4,1,1,47,0,0
160210,-66.6666666666667,4,1,1,44,0,0
160299,-66.6666666666667,4,1,1,41,0,0
160388,-66.6666666666667,4,1,1,38,0,0
160478,-66.6666666666667,4,1,1,35,0,0
160567,-66.6666666666667,4,1,1,32,0,0
160656,-66.6666666666667,4,1,1,29,0,0
160746,-66.6666666666667,4,1,1,26,0,0

[Colours]
Combo1 : 17,254,176
Combo2 : 173,255,95
Combo3 : 255,88,100
Combo4 : 255,94,55

[HitObjects]
64,192,11817,2,0,B|68:120|128:120|128:32,1,160,4|2
252,80,12353,1,4
376,48,12531,1,8
332,168,12710,1,2
332,168,12799,1,0
332,168,12888,2,0,B|312:204|332:256,1,80,4|0
180,216,13246,2,0,B|200:180|180:128,1,80,0|0
183,138,13603,6,0,B|10:138,1,160,4|8
104,40,14138,1,0
183,138,14317,1,2
260,36,14496,1,0
412,192,14674,6,4,B|424:252|356:360|240:308,1,240
24,160,15388,2,4,B|16:60|128:32,1,160,8|4
162,209,15924,2,0,B|162:254|211:277,1,80,2|0
349,174,16281,2,0,B|349:129|300:106,1,80,2|4
352,263,16638,2,0,B|333:303|288:304,1,80,0|8
159,120,16996,2,0,B|178:80|224:80,1,80,2|2
256,192,17353,1,4
256,192,17442,1,4
256,192,17531,6,0,B|156:204|180:320,1,160,4|0
256,192,18067,2,0,B|356:204|332:320,1,160,4|0
464,304,18603,2,4,B|492:228|468:132|392:88,1,240,4|0
114,91,19317,2,4,B|44:132|20:228|48:304,1,240,4|0
47,303,20031,1,2
256,40,20388,6,0,B|188:156|356:232|244:360,1,320,4|8
172,248,21281,1,0
44,244,21460,1,4
132,108,21638,1,2
260,112,21817,1,0
424,252,21996,1,4
296,248,22175,1,4
384,112,22353,1,2
512,116,22532,1,8
424,252,22710,5,0
256,324,22888,1,0
88,252,23067,1,4
88,252,23156,1,4
88,252,23246,6,0,B|28:168|108:80,2,160,4|0|8
200,192,24138,1,2
256,76,24317,1,4
312,192,24496,1,0
256,312,24674,1,0
132,280,24853,2,0,B|88:252|96:188,1,80,2|4
380,104,25210,2,0,B|424:132|416:196,1,80,0|8
380,280,25567,1,0
256,312,25746,2,0,B|256:216,1,80,2|0
208,112,26103,6,0,B|168:124|148:168,1,80,4|2
304,112,26460,2,0,B|344:124|364:168,1,80,0|4
100,136,26817,2,0,B|64:164|60:216,1,80,8|2
412,136,27174,2,0,B|448:164|452:216,1,80,4|0
376,308,27531,1,0
248,324,27710,1,2
296,204,27888,6,0,B|268:132|340:108|316:20,1,160,4|8
196,72,28424,1,2
196,72,28513,1,2
196,72,28603,1,2
72,100,28781,1,4
72,100,28871,1,4
72,100,28960,6,0,B|44:136|72:180,1,80,4|2
200,340,29317,2,0,B|228:304|200:260,1,80,0|4
196,72,29674,2,0,B|168:108|196:152,1,80,8|2
324,312,30031,2,0,B|352:276|324:232,1,80,4|0
327,237,30388,2,0,B|150:237,3,160,0|4|8|2
80,332,31638,1,0
80,332,31817,6,0,B|12:280|8:172|96:112,1,240,4|4
208,124,32531,2,0,B|184:160|208:212,1,80,8|2
304,260,32888,2,0,B|328:224|304:172,1,80,4|0
224,280,33246,6,0,B|204:320|220:364,1,80,8|4
217,357,33603,1,4
412,192,33960,1,8
416,172,34049,1,0
420,152,34138,1,8
424,132,34228,1,8
428,112,34317,1,8
392,272,34496,5,4
388,292,34585,1,0
384,312,34674,1,4
304,268,34853,2,0,B|212:268,1,80
216,176,35210,2,0,B|136:176,1,80,4|0
128,84,35567,2,0,B|40:84,2,80,0|4|0
224,84,36103,5,0
224,268,36281,1,4
128,84,36460,2,0,B|40:84,1,80
300,268,36817,1,4
472,40,37174,5,2
256,192,37353,5,2
251,198,37442,1,0
247,205,37531,1,4
87,245,37710,2,0,B|100:198|91:171|62:155,2,80,0|0|4
94,58,38246,1,0
240,10,38424,1,0
303,118,38603,1,4
428,132,38781,1,0
443,285,38959,1,0
275,367,39139,2,0,B|313:336|341:334|368:354,4,80,4|0|0|4|0
472,40,40031,5,2
200,256,40210,5,0
192,136,40389,1,0
312,128,40567,1,0
320,248,40746,1,0
178,226,40924,5,0
221,114,41103,1,0
333,157,41281,1,0
290,269,41639,1,0
170,190,41818,5,0
257,106,41997,1,0
341,193,42175,1,0
254,277,42354,1,0
179,154,42532,5,0
293,115,42889,1,0
332,229,43067,1,0
218,268,43246,2,0,B|125:268,2,80,4|0|0
179,154,43781,2,0,B|75:155,1,80,4|0
144,40,44138,2,0,B|40:41,2,80,0|4|0
440,40,44674,1,4
202,124,45031,5,8
322,137,45210,1,0
309,257,45388,1,0
189,245,45567,1,4
80,56,45924,5,4
80,67,46013,1,4
80,79,46103,2,0,B|80:160,1,80,4|0
432,305,46460,2,0,B|432:224,1,80,0|4
160,232,46817,2,0,B|217:289,1,80,0|0
352,152,47174,2,0,B|294:94,1,80,4|0
192,128,47531,5,0
320,256,47710,1,4
192,128,47888,1,0
320,256,48246,1,4
184,184,48603,5,0
256,152,48781,1,0
328,184,48960,1,4
424,136,49317,5,0
256,72,49495,1,4
88,136,49674,1,0
40,232,50031,5,4
256,312,50209,1,4
472,232,50388,1,0
192,272,50567,6,0,B|208:288|216:312|208:352,1,80,0|4
303,346,50924,2,0,B|295:311|303:287|319:271,1,80,0|4
136,192,51281,1,0
376,192,51460,1,0
256,56,51638,5,4
256,68,51728,1,4
256,79,51817,2,0,B|256:176,1,80,4|0
96,152,52174,2,0,B|96:195|73:211|31:230,1,80,0|4
256,360,52531,2,0,B|256:263,1,80
136,312,52888,6,0,B|135:268|158:252|200:233,1,80,4|0
416,152,53246,2,0,B|415:195|438:211|480:230,1,80,0|4
376,312,53603,2,0,B|376:268|353:252|311:233,1,80
256,56,53960,1,4
64,336,54317,5,0
88,256,54496,1,4
186,262,54674,5,4
232,192,54853,1,0
328,216,55031,5,0
392,162,55210,1,0
120,162,55388,1,4
256,48,55746,5,4
256,48,55924,1,0
256,352,56103,2,0,B|256:288|256:288|272:272|312:280|328:224,1,160,4|0
256,152,56638,2,0,B|256:192|256:192|256:216|216:224|192:224|192:224|64:224,1,240,0|0
252,68,57531,6,0,B|300:64|328:104,1,80,4|0
320,220,57888,2,0,B|320:316,1,80,0|4
200,308,58246,2,0,B|124:352|36:300,1,160,8|4
44,188,58781,1,0
36,152,58871,1,0
28,116,58960,1,2
188,40,59138,1,0
196,76,59228,1,0
204,112,59317,2,0,B|384:112,1,160,4|8
472,192,59853,6,0,B|460:232|460:232|480:272,1,80,0|2
34,266,60210,2,0,B|52:232|52:232|40:192,1,80,0|4
164,252,60567,5,2
264,176,60746,1,2
232,296,60924,1,4
180,176,61103,1,8
296,248,61281,1,2
296,248,61460,1,4
60,56,61996,6,0,B|164:52,1,80,2|4
452,328,62353,2,0,B|348:332,1,80,0|8
296,248,62710,2,0,B|288:152,2,80,0|0|4
300,272,63156,1,4
304,296,63246,6,0,B|224:340|136:288,1,160,4|0
132,180,63781,2,0,B|120:88,2,80,4|8|0
256,192,64317,1,4
380,180,64496,2,0,B|392:88,2,80,0|2|0
256,216,65031,1,4
132,116,65210,5,2
256,44,65388,1,8
376,124,65567,1,0
372,268,65746,1,0
256,352,65924,1,0
132,276,66103,1,4
256,192,66281,12,0,67531
52,344,67888,6,0,B|32:264,1,80,2|0
460,344,68246,2,0,B|480:264,1,80,2|0
52,240,68603,2,0,B|32:160,1,80,2|0
460,240,68960,6,0,B|480:160,1,80,4|0
384,32,69317,2,0,B|364:124,1,80,2|4
316,244,69674,2,0,B|216:272|168:188,2,160,8|4|0
276,104,70567,1,2
256,92,70656,1,0
236,80,70746,2,0,B|168:40,1,80,4|0
24,288,71103,2,0,B|92:328,1,80,8|0
92,328,71460,1,2
92,328,71638,1,8
428,340,71817,6,0,B|376:260|444:172,1,160,4|2
496,88,72353,1,4
324,244,72531,2,0,B|236:244,1,80,8|0
84,44,72888,2,0,B|136:124|68:212,3,160,4|2|4|8
20,296,74138,1,0
20,296,74228,1,0
20,296,74317,1,2
140,296,74496,1,4
140,296,74585,1,4
140,296,74674,1,4
200,192,74853,5,2
168,76,75031,2,0,B|72:72,1,80,0|4
344,76,75388,2,0,B|440:72,1,80,8|2
168,120,75746,2,0,B|72:116,1,80,4|0
344,120,76103,2,0,B|440:116,1,80,0|8
168,168,76460,2,0,B|72:164,1,80,4|2
344,168,76817,2,0,B|440:164,1,80,8|0
168,208,77174,1,2
340,208,77353,1,8
260,336,77531,6,0,B|184:224|348:144|248:20,1,320,4|8
200,108,78424,1,0
328,268,78603,2,0,B|360:232|352:176,1,80,4|0
200,108,79138,2,0,B|168:144|176:200,1,80,4|4
216,288,79496,1,0
216,288,79585,1,0
216,288,79674,5,8
368,244,79853,1,0
316,92,80031,1,0
160,136,80210,1,4
160,136,80299,1,4
160,136,80388,1,4
216,288,80746,6,0,B|240:248|204:182,1,80,2|0
56,56,81103,2,0,B|160:56,1,80,8|0
296,96,81460,2,0,B|272:136|308:202,1,80,0|4
456,328,81817,2,8,B|352:328,1,80,0|8
216,288,82174,5,4
56,56,82353,1,8
296,96,82531,1,8
456,328,82710,1,8
225,211,82888,5,0
254,156,83067,1,4
287,208,83246,1,4
56,56,83424,1,0
464,40,83603,6,2,B|464:144,1,80
48,344,83960,2,2,B|48:240,1,80
456,48,84317,2,2,B|456:152,1,80
448,56,84674,2,0,B|448:160,1,80,2|4
280,80,85210,1,0
280,280,85388,2,0,B|368:280,1,80,8|0
312,216,85746,5,4
485,246,85924,1,0
331,333,86103,1,0
426,349,86281,1,4
411,160,86460,1,8
200,168,86638,5,0
27,138,86816,1,0
181,51,86995,1,8
64,328,87174,5,0
448,56,87353,1,0
224,96,87531,5,4
234,101,87621,1,4
244,106,87710,1,4
288,288,87888,5,4
278,283,87978,1,4
268,278,88067,1,4
464,160,88246,5,8
256,40,88424,1,0
48,160,88603,1,0
408,104,88781,6,2,B|408:192,1,80
56,328,89138,2,4,B|160:328,1,80,0|8
296,288,89496,2,2,B|272:248|308:182,1,80
456,56,89853,2,0,B|352:56,1,80
256,192,90210,5,2
256,192,90299,1,0
256,192,90388,1,0
256,192,90477,1,0
256,192,90567,1,2
256,192,90656,1,0
256,192,90745,1,0
256,192,90835,1,0
256,192,90924,1,2
256,192,91013,1,0
256,192,91103,1,6
320,48,91460,6,0,B|240:48,1,80
232,48,91728,1,0
224,48,91817,1,0
136,80,91996,1,0
216,136,92174,1,8
128,168,92353,1,8
208,224,92531,1,8
216,136,92710,1,0
128,168,92888,1,0
208,224,93067,1,0
296,184,93246,1,0
376,136,93424,2,0,B|400:168|384:224,1,80
296,96,93781,2,0,B|320:56|368:48,2,80,0|8|8
296,96,94228,1,0
296,96,94317,1,0
208,56,94496,5,0
120,16,94674,1,4
48,168,94853,1,0
40,72,95031,1,4
216,152,95210,1,0
136,200,95388,1,4
136,296,95567,6,0,B|56:264,1,80
256,304,95924,2,0,B|176:352,2,80,4|0|4
256,304,96460,1,0
392,296,96638,2,0,B|312:264,2,80,4|0|0
392,296,97174,1,0
480,336,97353,1,0
488,288,97442,1,0
472,240,97531,1,0
384,200,97710,6,2,B|402:151|464:144,2,80
128,200,98246,2,8,B|110:151|48:144,2,80
256,288,98781,1,2
256,192,98960,1,8
256,96,99138,1,2
216,8,99317,2,0,B|256:-8|304:8,1,80
256,96,99674,1,4
256,96,99853,1,4
152,144,100031,5,0
360,144,100210,1,0
256,288,100388,1,0
194,95,100567,5,2
369,208,100746,1,2
203,272,100924,1,2
203,272,101103,6,0,B|128:304,1,80
216,192,101460,2,0,B|296:160,1,80
160,136,101817,1,0
128,144,102174,1,0
96,152,102531,2,0,B|16:176,1,80
32,272,102888,5,4
104,336,103067,1,0
152,352,103156,1,0
200,336,103246,6,0,B|264:352|320:312,1,120,4|0
376,216,103603,2,0,B|296:264|328:368,1,160,2|0
472,200,104138,1,6
280,176,104317,2,0,B|320:152|320:104,1,80,0|2
319,110,104674,2,0,B|184:112,1,120,4|0
200,224,105031,2,0,B|136:288|48:256,1,160,0|0
112,168,105567,1,6
104,152,105656,1,0
96,136,105746,6,0,B|184:104,1,80,0|2
416,248,106103,2,0,B|328:280,1,80,4|0
340,275,106460,1,2
172,276,106638,1,4
256,152,106817,2,0,B|248:64|160:24,1,160,0|4
344,64,107353,1,0
384,192,107531,2,0,B|384:240|424:256,1,80,0|4
423,255,107888,2,2,B|272:312,1,160,0|4
88,128,108424,2,0,B|208:80,1,120
224,72,108781,5,4
336,160,108960,1,4
208,216,109138,1,0
328,296,109317,2,0,B|384:328|456:280,1,120,0|0
408,200,109674,2,0,B|408:240|440:280,1,80,0|4
456,136,110031,2,0,B|456:96|424:56,1,80,0|0
428,62,110388,2,0,B|248:64,1,160,4|0
256,336,110924,2,0,B|136:336,1,120
72,264,111281,2,0,B|200:264,1,120,4|0
216,264,111638,5,0
168,160,111817,1,4
296,184,111996,1,0
168,160,112174,1,0
248,80,112353,1,4
168,160,112531,2,0,B|64:144,1,80,0|0
352,280,112888,2,0,B|456:264,1,80,4|0
423,147,113246,2,0,B|344:160,1,80,4|0
80,267,113603,2,0,B|160:280,1,80,0|4
256,200,113960,1,0
256,192,114049,1,2
256,184,114138,1,0
256,176,114228,1,2
256,168,114317,1,0
256,160,114406,1,0
256,152,114496,1,4
256,144,114585,1,0
256,136,114674,6,0,B|312:120|400:136,1,120,4|0
432,104,115031,2,0,B|376:120|288:104,1,120,0|0
296,104,115388,2,0,B|328:264,1,160,2|10
448,272,115924,1,2
352,360,116103,1,2
224,320,116281,1,2
224,192,116460,1,10
128,104,116639,1,0
0,144,116817,1,2
0,144,117174,6,0,B|24:208|96:216,1,120,8|0
144,200,117531,2,0,B|80:224|72:296,1,120,4|0
72,304,117888,1,0
216,312,118067,1,4
360,320,118246,1,2
296,216,118424,6,0,B|352:120,1,80,0|10
240,128,118781,2,2,B|240:32,1,80
176,216,119138,2,2,B|120:120,1,80,2|10
368,280,119496,2,0,B|424:376,1,80,0|2
112,280,119853,2,0,B|56:376,1,80,0|8
71,349,120210,1,0
40,224,120388,6,0,B|80:184|56:104,1,120,4|0
95,133,120746,2,0,B|112:176|80:208,1,80,0|2
328,208,121103,2,0,B|288:248|312:328,1,120
256,296,121460,2,0,B|239:253|271:221,1,80,2|2
270,222,121817,5,2
296,104,121996,1,2
368,208,122174,1,2
296,104,122353,1,0
416,128,122531,1,2
296,104,122710,1,0
296,104,122888,2,2,B|256:96|232:56,1,80,0|0
233,58,123246,6,0,B|88:56,1,120,4|0
96,56,123603,1,2
176,160,123781,1,4
56,184,123960,1,0
136,280,124138,1,2
264,240,124317,2,2,B|334:231|416:208,1,120,2|0
328,280,124674,2,0,B|257:288|176:312,1,120,2|0
72,320,125031,6,0,B|64:280|16:248,1,80,2|0
256,120,125388,2,0,B|256:8,1,80,0|2
440,320,125746,2,0,B|448:280|496:248,1,80,2|0
264,240,126103,5,4
168,192,126281,1,2
64,168,126460,1,8
256,120,126638,1,4
256,120,126728,1,4
256,120,126817,1,4
64,168,126996,1,2
264,240,127174,6,0,B|352:296|416:304,1,160
368,184,127710,1,2
256,120,127888,1,0
144,184,128067,1,0
256,120,128246,1,2
368,184,128424,1,2
328,304,128603,6,0,B|328:384,1,80
184,80,128960,2,0,B|184:0,1,80,4|0
192,88,129317,6,0,B|192:-16,1,80,2|2
320,296,129674,2,0,B|320:400,1,80,0|0
256,224,130031,5,2
160,264,130210,1,2
88,336,130388,1,8
176,168,130567,5,4
176,152,130656,1,4
176,136,130746,1,4
256,232,130924,1,4
256,248,131013,1,4
256,264,131103,1,4
336,136,131281,1,4
336,120,131370,1,4
336,104,131460,1,4
416,264,131638,1,4
416,280,131727,1,4
416,296,131817,1,4
376,200,131996,5,2
256,264,132174,1,0
176,136,132353,1,0
296,184,132531,2,0,B|400:184,1,80,4|0
176,136,132888,5,0
80,96,133067,1,2
24,8,133246,1,0
280,136,133424,6,4,B|384:136,1,80,0|4
224,208,133781,2,0,B|224:312,1,80,0|2
176,136,134138,2,0,B|64:136,2,80,0|4|0
280,136,134674,5,6
280,136,134853,1,0
392,23,135031,1,2
392,23,135210,1,0
280,136,135388,1,6
280,136,135567,1,0
272,296,135746,1,2
272,296,135924,1,2
208,96,136460,5,0
208,96,136549,1,0
208,96,136638,1,0
208,96,136728,1,0
208,96,136817,1,0
208,96,136906,1,0
208,96,136995,1,0
208,96,137085,1,0
208,96,137174,1,0
208,96,137263,1,0
208,96,137352,1,0
208,96,137442,1,0
211,96,137531,6,0,B|183:58|186:5,2,96.0000022888184
135,167,138067,1,0
136,168,138246,2,2,B|199:85|307:118,1,192.000004577637,8|0
306,119,138781,1,0
496,288,138960,2,0,B|432:370|324:337,1,192.000004577637
216,312,139496,1,0
216,312,139674,2,0,B|168:336,2,48.0000011444092,8|0|0
168,216,140031,1,0
72,152,140210,1,0
72,152,140388,6,2,B|8:240|80:336,1,192.000004577637,0|0
356,234,140924,2,2,B|420:146|348:50,1,192.000004577637,0|0
256,56,141460,2,0,B|352:56,1,96.0000022888184,0|0
256,192,141817,2,0,B|160:192,1,96.0000022888184,8|0
256,336,142174,2,0,B|352:336,1,96.0000022888184
464,336,142531,1,8
256,336,142710,1,0
48,336,142888,1,0
48,336,143246,6,0,B|112:264,1,96.0000022888184
288,176,143603,2,0,B|224:104,1,96.0000022888184
464,336,143960,2,2,B|272:336,1,192.000004577637,8|0
272,336,144496,1,0
96,192,144853,1,8
96,192,145031,1,0
256,24,145210,1,0
256,24,145299,1,0
256,24,145388,1,8
160,88,145567,1,0
48,88,145746,1,0
96,192,145924,1,0
160,88,146103,6,2,B|256:120|352:88,1,192.000004577637,0|0
352,200,146638,2,2,B|256:232|160:200,1,192.000004577637,0|0
112,320,147174,2,2,B|400:320,1,288.000006866455,0|8
400,320,147888,1,0
192,27,148246,5,0
224,75,148335,1,0
256,120,148424,1,0
288,75,148513,1,0
320,27,148603,1,8
232,192,148781,2,0,B|288:192,2,48.0000011444092,0|0|8
160,312,149138,5,0
160,312,149317,1,8
352,280,149496,1,0
352,280,149675,1,8
136,248,149853,1,0
136,248,150032,1,0
376,216,150210,1,0
376,216,150389,1,8
256,160,150567,2,0,B|256:32,2,119.999996423721,0|8|0
152,136,151103,5,8
136,248,151281,1,0
256,232,151460,1,8
376,248,151638,1,0
376,248,151728,1,0
376,248,151817,1,4
360,136,151996,1,0
104,32,152174,6,2,B|40:120|56:264,1,239.999992847443,0|0
456,261,152710,2,2,B|472:120|408:32,1,239.999992847443,0|0
256,192,153246,2,0,B|256:320,2,119.999996423721,0|0|8
144,144,153781,5,0
144,144,153871,1,0
144,144,153960,1,8
256,72,154138,1,0
256,72,154228,1,0
256,72,154317,1,0
368,144,154496,1,0
368,144,154586,1,0
368,144,154675,1,12
312,264,154853,5,0
424,224,155031,1,8
256,192,155210,1,0
200,264,155388,1,0
88,224,155566,1,0
256,192,155745,1,8
152,152,155924,6,0,B|152:24,1,119.999996423721
360,232,156281,2,0,B|360:360,1,119.999996423721,0|8
256,192,156638,5,0
256,179,156728,1,0
256,167,156817,1,0
256,155,156906,1,0
256,142,156996,1,0
256,130,157085,1,0
256,118,157174,1,0
256,106,157263,1,0
256,93,157353,1,0
256,81,157442,1,0
256,72,157531,2,2,B|256:24,12,29.9999991059304
144,136,158246,5,8
168,256,158424,1,0
120,368,158603,1,0
368,248,158781,5,0
344,128,158959,1,0
392,16,159138,1,8
456,176,159317,5,0
456,176,159406,1,0
456,176,159496,1,0
56,176,159674,1,0
56,176,159763,1,0
56,176,159853,1,0
256,48,160031,1,0
256,60,160121,1,0
256,71,160210,1,0
256,82,160299,1,0
256,93,160388,1,0
256,106,160478,1,0
256,117,160567,1,0
256,128,160656,1,0
256,140,160746,1,0
