osu file format v12

[General]
AudioFilename: be3cc95ff685.mp3
AudioLeadIn: 2000
PreviewTime: 47522
Countdown: 0
SampleSet: Soft
StackLeniency: 0.6
Mode: 0
LetterboxInBreaks: 0
WidescreenStoryboard: 0

[Editor]
Bookmarks: 172,3892,18776,26218,33660,48544,55985,63427,78311,85753,93195,100637,108078,116451,119241,122962,130404,152730
DistanceSpacing: 0.8
BeatDivisor: 3
GridSize: 4

[Metadata]
Title:Threw It On The Ground
TitleUnicode:Threw It On The Ground
Artist:The Lonely Island
ArtistUnicode:The Lonely Island
Creator:Sonnyc
Version:Hard
Source:
Tags:tli snl turtleneck chain rap andy samberg elijah wood ryan reynolds
BeatmapID:282801
BeatmapSetID:108063

[Difficulty]
HPDrainRate:6
CircleSize:4
OverallDifficulty:7
ApproachRate:8
SliderMultiplier:2
SliderTickRate:1

[Events]
//Background and Video events
0,0,"bg.jpg",0,0
Video,-218,"vd.avi"
//Break Periods
//Storyboard Layer 0 (Background)
//Storyboard Layer 1 (Fail)
//Storyboard Layer 2 (Pass)
//Storyboard Layer 3 (Foreground)
//Storyboard Sound Samples
//Background Colour Transformations
3,100,0,0,0

[TimingPoints]
197,465.116279069767,4,2,1,45,1,0
18801,-100,4,1,1,60,0,1
32755,-100,4,2,1,45,0,0
48569,-100,4,1,1,60,0,1
62522,-100,4,2,1,45,0,0
78336,-100,4,1,1,60,0,1
92290,-100,4,2,1,45,0,0
100662,-100,4,1,1,60,0,1
107406,-100,4,1,1,60,0,0
108103,-100,4,2,1,45,0,0
115545,-100,4,1,1,60,0,0
119266,-100,4,2,1,45,0,0
122987,-100,4,1,1,60,0,1
129499,-100,4,2,1,45,0,0
152755,-83.3333333333333,4,1,1,60,0,1
155545,-83.3333333333333,4,2,1,45,0,0
156165,-83.3333333333333,4,2,1,5,0,0

[Colours]
Combo1 : 17,254,176
Combo2 : 173,255,95
Combo3 : 255,88,100
Combo4 : 255,94,55

[HitObjects]
80,92,197,6,0,P|168:124|188:224,1,200,4|0,0:3|0:0,0:0:0:0:
116,312,894,1,4,0:3:0:0:
189,219,1127,2,0,B|264:192|312:248|388:216,1,200,8|0,0:0|0:0,0:0:0:0:
456,124,1824,2,0,P|496:184|456:304,1,200,2|0,0:0|0:0,0:0:0:0:
385,216,2522,6,0,L|348:144,1,66.6666666666667,4|0,0:3|0:0,0:0:0:0:
304,80,2832,2,0,L|268:136,1,66.6666666666667,0|12,0:0|0:0,0:0:0:0:
264,148,3917,6,0,P|232:172|76:204,1,200,4|0,0:3|0:0,0:0:0:0:
26,99,4615,1,4,0:3:0:0:
144,100,4848,2,0,P|192:156|164:292,1,200,8|0,0:0|0:0,0:0:0:0:
120,376,5545,2,0,P|180:312|292:292,1,200,2|0,0:0|0:0,0:0:0:0:
404,304,6243,2,0,P|368:336|312:360,1,100,4|0,0:3|0:0,0:0:0:0:
264,216,6708,1,8,0:0:0:0:
248,184,7638,6,0,P|216:120|96:68,1,200,4|0,0:3|0:0,0:0:0:0:
4,132,8336,1,4,0:3:0:0:
28,248,8569,2,0,P|84:220|115:168,1,100,8|0,0:0|0:0,0:0:0:0:
4,132,9034,1,0,0:0:0:0:
28,248,9266,2,0,B|88:316|132:284|192:360,1,200,2|0,0:0|0:0,0:0:0:0:
72,364,9964,2,0,P|96:288|236:252,1,200,4|12,0:3|0:0,0:0:0:0:
368,260,11359,6,0,P|304:224|268:104,1,200,4|0,0:3|0:0,0:0:0:0:
348,24,12057,1,4,0:3:0:0:
384,136,12290,2,0,B|269:109|269:109|241:81|241:81|184:68,1,200,8|0,0:0|0:0,0:0:0:0:
92,128,12987,2,0,L|206:155,1,100,2|0,0:0|0:0,0:0:0:0:
120,56,13452,2,0,P|56:60|28:84,1,100,0|4,0:0|0:3,0:0:0:0:
31,175,13917,1,0,0:0:0:0:
116,256,14150,2,0,P|232:236|300:284,1,200,8|0,0:0|0:0,0:0:0:0:
356,380,14848,1,0,0:0:0:0:
296,279,15080,6,0,B|341:253|389:265|389:265|437:241|437:181,1,200,4|0,0:3|0:0,0:0:0:0:
364,84,15778,1,4,0:3:0:0:
248,108,16010,2,0,B|192:100|156:132|156:132|108:152|58:130,1,200,8|0,0:0|0:0,0:0:0:0:
111,25,16708,5,2,0:0:0:0:
160,344,17406,2,0,P|312:360|352:344,1,200,4|12,0:3|0:0,0:0:0:0:
432,116,18801,6,0,P|408:52|300:80,1,200,4|0,0:0|0:0,0:0:0:0:
256,188,19499,1,0,0:0:0:0:
211,78,19731,2,0,P|104:52|80:116,1,200,8|0,0:0|0:0,0:0:0:0:
132,220,20429,6,0,B|135:276|104:319|104:319|151:309|199:324,1,200,2|4,0:0|0:3,0:0:0:0:
314,323,21127,2,0,B|360:309|407:319|407:319|376:276|380:220,2,200,4|12|0,0:3|0:2|0:0,0:0:0:0:
256,220,22290,1,0,0:0:0:0:
336,132,22522,6,0,P|276:84|176:132,1,200,2|0,0:0|0:0,0:0:0:0:
140,244,23220,1,0,0:0:0:0:
256,220,23452,1,8,0:0:0:0:
372,244,23685,2,0,P|328:316|208:328,2,200,4|2|4,0:3|0:0|0:3,0:0:0:0:
464,172,24848,2,0,P|436:124|392:80,1,100,4|0,0:3|0:0,0:0:0:0:
296,48,25313,1,4,0:2:0:0:
112,68,25545,5,8,3:0:0:0:
104,100,25662,1,0,3:0:0:0:
96,132,25778,1,8,3:0:0:0:
88,164,25894,1,0,3:0:0:0:
80,196,26010,1,8,3:0:0:0:
72,228,26127,1,0,3:0:0:0:
64,260,26243,6,0,P|116:320|216:264,1,200,4|0,0:0|0:0,0:0:0:0:
256,164,26941,1,4,0:3:0:0:
299,275,27173,2,0,P|396:320|448:260,1,200,8|0,0:0|0:0,0:0:0:0:
412,148,27871,6,0,B|412:80|412:80|384:20|304:20,1,200,2|0,0:0|0:0,0:0:0:0:
192,124,28569,1,4,0:3:0:0:
320,124,28801,1,0,0:0:0:0:
208,20,29034,2,0,B|128:20|100:80|100:80|100:148,1,200,12|0,0:2|0:0,0:0:0:0:
100,264,29731,1,0,0:0:0:0:
204,208,29964,5,2,0:0:0:0:
100,264,30196,1,0,0:0:0:0:
4,192,30429,2,0,P|20:164|76:124,1,100,0|4,0:0|0:3,0:0:0:0:
188,88,30894,1,8,0:0:0:0:
204,208,31127,1,0,0:0:0:0:
320,192,31359,2,0,P|302:274|206:326,2,200,0|0|0,0:0|0:0|0:0,0:0:0:0:
248,98,32522,1,0,0:0:0:0:
204,208,32755,5,12,0:0:0:0:
392,286,33065,1,0,0:0:0:0:
364,80,33375,1,0,0:0:0:0:
92,36,33917,5,4,0:3:0:0:
96,68,34034,1,0,0:0:0:0:
100,100,34150,1,0,0:0:0:0:
96,132,34266,1,0,0:0:0:0:
92,164,34383,1,0,0:0:0:0:
72,280,34615,2,0,P|124:236|240:272,1,200,8|0,0:0|0:0,0:0:0:0:
324,356,35313,2,0,P|320:304|336:256,1,100,2|0,0:0|0:0,0:0:0:0:
404,164,35778,1,4,0:3:0:0:
452,272,36010,2,0,B|380:276|380:276|334:259|334:259|256:264,1,200,4|8,0:3|0:0,0:0:0:0:
136,276,36708,1,0,0:0:0:0:
176,164,36941,2,0,L|290:158,1,100
224,52,37406,6,0,B|156:55|156:55|89:58|40:111,1,200,4|4,0:3|0:3,0:0:0:0:
28,228,38103,1,0,0:0:0:0:
136,276,38336,1,8,0:0:0:0:
176,164,38569,2,0,B|256:140|296:192|376:168,2,200,4|2|4,0:3|0:0|0:3,0:0:0:0:
136,276,39731,1,4,0:3:0:0:
376,276,40196,1,8,0:0:0:0:
484,124,40429,5,0,3:0:0:0:
456,112,40545,1,0,3:0:0:0:
428,100,40662,1,0,3:0:0:0:
400,88,40778,1,0,3:0:0:0:
372,76,40894,1,0,3:0:0:0:
344,64,41010,1,0,3:0:0:0:
316,52,41127,6,0,P|272:44|124:100,1,200,4|0,0:3|0:0,0:0:0:0:
88,204,41824,1,4,0:3:0:0:
172,288,42057,2,0,B|248:240|216:184|300:140,1,200,8|0,0:0|0:0,0:0:0:0:
416,168,42755,2,0,P|384:220|336:256,1,100,2|0,0:0|0:0,0:0:0:0:
300,140,43220,1,0,0:0:0:0:
416,168,43452,2,0,P|464:216|440:340,1,200,4|8,0:3|0:0,0:0:0:0:
68,336,44848,6,0,P|48:216|96:168,1,200,4|0,0:3|0:0,0:0:0:0:
212,148,45545,1,4,0:3:0:0:
326,176,45778,2,0,P|260:257|171:259,1,200,8|0,0:0|0:0,0:0:0:0:
96,167,46476,5,2,0:0:0:0:
136,56,46708,2,0,P|208:28|264:40,1,100
415,167,47406,5,0,0:0:0:0:
376,280,47638,2,0,P|304:308|248:296,1,100,12|0,0:0|0:0,0:0:0:0:
168,280,48103,2,0,P|146:278|74:306,1,100
168,280,48569,6,0,P|208:220|168:96,1,200,4|0,0:0|0:0,0:0:0:0:
63,73,49266,1,0,0:0:0:0:
92,188,49499,2,0,L|300:198,1,200,8|0,0:0|0:0,0:0:0:0:
408,204,50196,6,0,P|392:264|272:312,1,200,2|4,0:0|0:3,0:0:0:0:
176,192,50894,2,0,P|192:132|312:84,2,200,4|12|0,0:3|0:2|0:0,0:0:0:0:
352,348,52290,6,0,P|376:296|380:240,1,100,2|0,0:0|0:0,0:0:0:0:
348,140,52755,2,0,B|276:160|260:236|260:236|184:248,1,200,4|8,0:3|0:0,0:0:0:0:
166,359,53452,2,0,L|264:343,1,100,4|0,0:3|0:0,0:0:0:0:
199,246,53917,2,0,P|117:185|109:81,1,200,2|4,0:0|0:3,0:0:0:0:
204,32,54615,2,0,B|252:56|256:112|256:112|260:56|308:32,1,200,4|4,0:3|0:2,0:0:0:0:
452,152,55313,5,8,3:0:0:0:
444,184,55429,1,0,3:0:0:0:
436,216,55545,1,8,3:0:0:0:
428,248,55662,1,0,3:0:0:0:
420,280,55778,1,8,3:0:0:0:
412,312,55894,1,0,3:0:0:0:
404,344,56010,6,0,B|353:351|353:351|303:358|266:319|208:325,1,200,4|0,0:0|0:0,0:0:0:0:
92,348,56708,1,4,0:3:0:0:
56,234,56941,2,0,P|156:248|208:325,1,200,8|0,0:0|0:0,0:0:0:0:
92,348,57638,6,0,L|208:156,1,200,2|0,0:0|0:0,0:0:0:0:
256,76,58336,2,0,P|296:112|284:256,1,200,4|8,0:3|0:0,0:0:0:0:
208,332,59034,1,0,0:0:0:0:
291,248,59266,2,0,P|361:261|401:289,1,100
476,352,59731,6,0,P|504:292|444:168,1,200,2|0,0:0|0:0,0:0:0:0:
338,167,60429,1,4,0:3:0:0:
224,200,60662,2,0,P|280:269|385:276,1,200,8|0,0:0|0:0,0:0:0:0:
338,167,61359,2,0,P|284:96|179:89,2,200,2|0|0,0:0|0:0|0:0,0:0:0:0:
224,200,62522,5,12,0:0:0:0:
384,72,62832,1,0,0:0:0:0:
412,278,63142,1,0,0:0:0:0:
224,200,63452,6,0,P|184:164|136:152,1,100,4|0,0:3|0:0,0:0:0:0:
33,103,63917,2,0,P|21:155|35:203,1,100,0|4,0:0|0:3,0:0:0:0:
45,318,64383,2,0,P|96:301|130:265,1,100,8|0,0:0|0:0,0:0:0:0:
140,152,64848,1,0,0:0:0:0:
240,92,65080,2,0,P|292:92|380:232,2,200,2|0|0,0:0|0:0|0:0,0:0:0:0:
140,152,66243,2,0,B|187:232|247:190|295:274,1,200,8|0,0:0|0:0,0:0:0:0:
512,360,67173,6,0,P|512:292|428:192,1,200,4|0,0:3|0:0,0:0:0:0:
316,168,67871,1,4,0:3:0:0:
196,168,68103,1,8,0:0:0:0:
256,272,68336,1,0,0:0:0:0:
136,272,68569,2,0,P|96:244|60:188,2,100,0|2|0,0:0|0:0|0:0,0:0:0:0:
376,272,69499,1,4,0:3:0:0:
328,40,69964,6,0,P|272:56|184:40,2,150,12|0|0,0:0|0:0|0:0,0:0:0:0:
384,144,70894,2,0,P|336:164|304:200,1,100,4|0,0:3|0:0,0:0:0:0:
268,312,71359,2,0,P|236:348|188:368,1,100,0|4,0:0|0:3,0:0:0:0:
72,352,71824,1,8,0:0:0:0:
64,116,72290,6,0,P|124:140|168:276,1,200
56,236,72987,1,0,0:0:0:0:
148,164,73220,2,0,P|196:144|252:140,1,100,4|0,0:3|0:0,0:0:0:0:
360,152,73685,2,0,P|336:68|236:24,1,200,8|0,0:0|0:0,0:0:0:0:
296,252,74615,6,0,P|332:268|472:188,1,200,4|0,0:3|0:0,0:0:0:0:
360,152,75313,1,4,0:3:0:0:
240,148,75545,2,0,P|184:216|232:352,1,200,8|0,0:0|0:0,0:0:0:0:
308,368,76243,1,2,0:0:0:0:
428,368,76476,6,0,L|492:344,2,66.6666666666667
415,278,76941,2,0,L|408:212,1,66.6666666666667,4|0,0:3|0:0,0:0:0:0:
396,120,77251,2,0,L|342:160,1,66.6666666666667,0|12,0:0|0:0,0:0:0:0:
304,192,78336,6,0,P|280:204|116:176,1,200,4|0,0:0|0:0,0:0:0:0:
64,72,79034,1,0,0:0:0:0:
182,78,79266,1,8,0:0:0:0:
117,177,79499,2,0,P|80:260|88:368,2,200,0|2|4,0:0|0:0|0:3,0:0:0:0:
228,220,80662,6,0,P|304:232|424:192,1,200,4|8,0:3|0:0,0:0:0:0:
476,92,81359,1,0,0:0:0:0:
360,119,81592,2,0,P|372:152|419:195,1,100
476,92,82057,6,0,B|444:50|386:40|386:40|293:25,1,200,2|4,0:0|0:3,0:0:0:0:
188,80,82755,1,0,0:0:0:0:
288,144,82987,1,8,0:0:0:0:
293,25,83220,2,0,P|188:80|172:164,2,200,4|2|4,0:3|0:0|0:3,0:0:0:0:
393,90,84383,1,4,0:3:0:0:
424,208,84615,1,0,0:0:0:0:
393,326,84848,1,4,0:2:0:0:
212,288,85080,5,8,3:0:0:0:
180,280,85196,1,0,3:0:0:0:
148,272,85313,1,8,3:0:0:0:
116,264,85429,1,0,3:0:0:0:
84,256,85545,1,8,3:0:0:0:
52,248,85662,1,0,3:0:0:0:
20,240,85778,6,0,P|4:192|88:80,1,200,4|0,0:0|0:0,0:0:0:0:
204,80,86476,1,4,0:3:0:0:
312,128,86708,2,0,B|352:196|308:248|348:324,1,200,8|0,0:0|0:0,0:0:0:0:
420,228,87406,6,0,P|296:216|236:280,1,200,2|0,0:0|0:0,0:0:0:0:
208,372,88103,2,0,P|188:328|140:276,1,100,4|0,0:3|0:0,0:0:0:0:
64,212,88569,2,0,P|177:160|197:74,1,200,8|0,0:0|0:0,0:0:0:0:
84,96,89266,1,0,0:0:0:0:
84,96,89499,6,0,L|228:268,1,200,2|0,0:0|0:0,0:0:0:0:
296,332,90196,1,4,0:3:0:0:
400,276,90429,2,0,P|440:244|464:200,1,100,8|0,0:0|0:0,0:0:0:0:
452,84,90894,1,0,0:0:0:0:
336,56,91127,6,0,B|256:72|176:140|256:212|336:140|256:72|176:56,1,300,2|0,0:0|0:0,0:0:0:0:
120,160,92057,1,0,0:0:0:0:
192,252,92290,6,0,P|256:268|320:252,2,133.333333333333,12|0|0,0:0|0:0|0:0,0:0:0:0:
308,144,93220,6,0,P|364:152|424:276,1,200,4|0,0:3|0:0,0:0:0:0:
360,368,93917,1,4,0:3:0:0:
244,344,94150,2,0,B|164:316|128:360|48:328,1,200,8|0,0:0|0:0,0:0:0:0:
112,228,94848,2,0,B|136:184|136:136|136:136|200:48,1,200,2|0,0:0|0:0,0:0:0:0:
314,51,95545,2,0,B|376:136|376:136|376:184|400:228,1,200,4|8,0:3|0:0,0:0:0:0:
464,327,96243,1,0,0:0:0:0:
497,214,96476,2,0,P|452:212|400:228,1,100
336,328,96941,6,0,B|269:316|269:316|218:282|218:282|147:270,1,200,4|0,0:3|0:0,0:0:0:0:
32,250,97638,1,4,0:3:0:0:
106,157,97871,2,0,L|207:174,2,100,8|0|0,0:0|0:0|0:0,0:0:0:0:
69,45,98569,1,2,0:0:0:0:
184,28,98801,2,0,P|240:32|292:60,1,100
360,136,99266,5,4,0:3:0:0:
400,248,99499,1,0,0:0:0:0:
244,340,99731,1,12,0:0:0:0:
284,228,99964,1,0,0:0:0:0:
128,136,100196,1,0,0:0:0:0:
168,248,100429,1,0,0:0:0:0:
228,76,100662,6,0,P|184:32|32:68,1,200,4|0,0:0|0:0,0:0:0:0:
12,152,101359,1,0,0:0:0:0:
100,229,101592,2,0,P|120:196|128:136,1,100,8|0,0:0|0:0,0:0:0:0:
12,152,102057,1,0,0:0:0:0:
100,229,102290,2,0,B|176:288|216:248|288:292,1,200,2|4,0:0|0:3,0:0:0:0:
380,364,102987,6,0,P|396:320|424:272,1,100,4|0,0:3|0:0,0:0:0:0:
492,180,103452,1,4,0:2:0:0:
422,274,103685,1,0,0:0:0:0:
374,167,103917,1,0,0:0:0:0:
364,152,104383,6,0,P|320:96|196:92,1,200,4|4,0:3|0:3,0:0:0:0:
114,308,105313,1,8,0:0:0:0:
114,308,105545,2,4,P|228:256|256:192,2,200,0|2|0,0:0|0:0|0:0,0:3:0:0:
140,192,106708,2,0,B|192:224|208:276|208:276|296:296,1,200,4|8,0:3|0:0,0:0:0:0:
476,316,107406,5,8,3:0:0:0:
472,284,107522,1,0,3:0:0:0:
468,252,107638,1,8,3:0:0:0:
464,220,107755,1,0,3:0:0:0:
460,188,107871,1,8,3:0:0:0:
456,156,107987,1,0,3:0:0:0:
452,124,108103,6,0,B|444:76|396:48|396:48|360:92|300:84,1,200
196,40,108801,1,4,0:3:0:0:
305,84,109034,2,0,P|340:172|296:264,1,200,8|0,0:0|0:0,0:0:0:0:
180,280,109731,1,2,0:0:0:0:
122,176,109964,2,0,P|171:162|220:168,1,100
180,280,110429,1,4,0:3:0:0:
62,277,110662,2,0,P|8:200|36:96,1,200
140,60,111359,1,0,0:0:0:0:
122,176,111592,5,0,0:0:0:0:
180,280,111824,2,0,B|236:280|276:248|276:248|372:248,1,200,4|4,0:3|0:3,0:0:0:0:
468,176,112522,1,0,0:0:0:0:
372,104,112755,2,0,B|276:104|276:104|236:72|180:72,1,200,8|0,0:0|0:0,0:0:0:0:
60,88,113452,6,0,P|20:164|64:264,1,200,2|0,0:0|0:0,0:0:0:0:
180,280,114150,1,4,0:3:0:0:
120,176,114383,1,0,0:0:0:0:
180,72,114615,1,8,0:0:0:0:
360,104,114848,5,8,3:0:0:0:
387,122,114964,1,0,3:0:0:0:
407,148,115080,1,8,3:0:0:0:
419,178,115196,1,0,3:0:0:0:
420,211,115313,1,8,3:0:0:0:
413,243,115429,1,0,3:0:0:0:
396,271,115545,6,0,B|376:304|340:324|340:324|280:356|220:320,1,200,2|0,0:0|0:0,0:0:0:0:
143,100,116476,1,8,0:0:0:0:
143,100,116708,2,0,P|240:140|284:220,2,200,0|2|0,0:0|0:0|0:0,0:0:0:0:
60,184,117871,2,0,P|104:264|200:303,1,200,0|8,0:0|0:0,0:0:0:0:
380,272,118569,5,8,3:0:0:0:
388,240,118685,1,0,3:0:0:0:
396,208,118801,1,8,3:0:0:0:
404,176,118917,1,0,3:0:0:0:
412,144,119034,1,8,3:0:0:0:
420,112,119150,1,0,3:0:0:0:
428,80,119266,6,0,P|472:104|504:148,2,100,0|0|0,0:0|0:0|0:0,0:0:0:0:
312,64,119964,1,4,0:3:0:0:
212,128,120196,2,0,P|244:160|296:176,1,100,8|0,0:0|0:0,0:0:0:0:
312,64,120662,1,0,0:0:0:0:
204,20,120894,1,2,0:0:0:0:
104,84,121127,2,0,P|64:116|40:164,1,100
32,276,121592,1,4,0:3:0:0:
141,324,121824,2,0,P|152:276|140:228,1,100,0|8,0:0|0:0,0:0:0:0:
100,116,122290,2,0,P|172:136|288:92,1,200
384,28,122987,6,0,B|376:120|432:128|424:220,1,200,4|0,0:0|0:0,0:0:0:0:
400,336,123685,1,4,0:3:0:0:
296,280,123917,2,0,P|240:264|168:268,1,100,8|0,0:0|0:0,0:0:0:0:
88,304,124383,1,0,0:0:0:0:
180,376,124615,6,0,B|204:304|204:304|199:263|199:263|224:180,1,200,2|0,0:0|0:0,0:0:0:0:
336,152,125313,2,0,L|303:260,1,100
384,336,125778,2,0,B|412:240|412:240|452:208|452:152,1,200,8|0,0:0|0:0,0:0:0:0:
244,44,126708,6,0,P|192:52|148:84,1,100,2|0,0:0|0:0,0:0:0:0:
128,192,127173,2,0,B|56:176|37:101|37:101|12:120|0:152,1,200,0|8,0:0|0:0,0:0:0:0:
4,268,127871,2,0,P|52:300|104:316,1,100
208,312,128336,6,0,P|204:260|276:136,1,200,2|0,0:0|0:0,0:0:0:0:
388,108,129034,1,4,0:3:0:0:
356,220,129266,1,0,0:0:0:0:
276,136,129499,5,12,0:0:0:0:
468,192,129809,1,0,0:0:0:0:
324,332,130119,1,0,0:0:0:0:
176,284,130429,6,0,B|132:272|132:272|106:272|76:264,1,100,0|0,0:2|0:0,0:0:0:0:
24,160,130894,2,0,B|68:172|68:172|96:172|124:180,1,100,0|4,0:0|0:3,0:0:0:0:
240,184,131359,2,0,P|232:112|324:36,1,200,8|0,0:0|0:0,0:0:0:0:
432,80,132057,1,2,0:0:0:0:
410,195,132290,2,0,P|352:168|332:140,1,100
432,80,132755,6,0,B|410:195|410:195|416:232|416:232|407:276,1,200,4|8,0:3|0:0,0:0:0:0:
328,360,133452,1,0,0:0:0:0:
296,248,133685,1,0,0:0:0:0:
328,360,133917,1,0,0:0:0:0:
212,336,134150,2,0,P|180:284|224:148,1,200,4|4,0:3|0:3,0:0:0:0:
428,64,135080,5,8,0:0:0:0:
428,64,135313,2,0,P|336:60|224:44,2,200,4|2|4,0:3|0:0|0:3,0:0:0:0:
380,172,136476,2,0,B|316:224|340:288|280:344,1,200,4|8,0:3|0:0,0:0:0:0:
104,304,137173,5,8,3:0:0:0:
100,272,137290,1,0,3:0:0:0:
96,240,137406,1,8,3:0:0:0:
92,208,137522,1,0,3:0:0:0:
88,176,137638,1,8,3:0:0:0:
84,144,137755,1,0,3:0:0:0:
80,112,137871,6,0,P|80:92|128:28,1,100
244,36,138336,2,0,P|261:46|292:119,1,100
248,224,138801,2,0,P|324:231|341:221,2,100,8|0|0,0:0|0:0|0:0,0:0:0:0:
180,128,139499,5,2,0:0:0:0:
128,232,139731,2,0,P|124:296|164:328,1,100
256,360,140196,2,0,L|256:256,1,100
384,232,140662,2,0,P|388:296|348:328,1,100,8|0,0:0|0:0,0:0:0:0:
256,260,141127,1,0,0:0:0:0:
212,152,141359,1,0,0:0:0:0:
308,84,141592,6,0,P|236:36|120:80,1,200,4|0,0:3|0:0,0:0:0:0:
64,160,142290,1,4,0:3:0:0:
48,276,142522,2,0,P|94:271|144:244,1,100,8|0,0:0|0:0,0:0:0:0:
212,152,142987,2,0,P|258:156|308:184,1,100,0|2,0:0|0:0,0:0:0:0:
376,276,143452,6,0,B|404:256|404:256|424:228,2,66.6666666666667
300,260,143917,2,0,B|272:280|272:280|252:308,1,66.6666666666667,4|0,0:3|0:0,0:0:0:0:
204,368,144228,2,0,B|176:348|176:348|156:320,1,66.6666666666667,0|12,0:0|0:0,0:0:0:0:
112,92,144848,6,0,P|160:72|208:68,1,100
312,124,145313,2,0,P|261:173|185:181,2,150,4|0|4,0:3|0:0|0:3,0:0:0:0:
208,68,146243,1,8,0:0:0:0:
312,124,146476,1,0,0:0:0:0:
332,136,146941,5,2,0:0:0:0:
388,240,147173,2,0,P|380:296|356:336,1,100
192,280,147638,2,0,P|245:259|288:260,1,100,4|0,0:3|0:0,0:0:0:0:
156,376,148103,2,0,P|111:341|88:300,1,100,8|0,0:0|0:0,0:0:0:0:
80,280,148801,5,0,0:0:0:0:
64,164,149034,2,0,P|76:112|104:76,1,100
180,164,149499,2,0,P|208:200|220:252,1,100,4|0,0:3|0:0,0:0:0:0:
212,368,149964,1,8,0:0:0:0:
212,368,150196,2,0,B|288:368|332:328|408:328,2,200,0|2|4,0:0|0:0|0:3,0:0:0:0:
220,252,151359,2,0,B|280:200|364:192|364:192|328:164,1,200,4|8,0:3|0:0,0:0:0:0:
160,100,152057,5,8,3:0:0:0:
127,101,152173,1,0,3:0:0:0:
96,113,152290,1,8,3:0:0:0:
72,135,152406,1,0,3:0:0:0:
57,164,152522,1,8,3:0:0:0:
52,197,152638,1,0,3:0:0:0:
59,229,152755,6,0,P|64:272|60:320,2,79.9999975585938,2|0|0,0:0|0:0|0:0,0:0:0:0:
139,241,153220,2,0,P|164:275|185:319,2,79.9999975585938
214,212,153685,2,0,P|253:229|293:256,2,79.9999975585938,8|0|0,0:0|0:0|0:0,0:0:0:0:
256,144,154150,2,0,P|299:139|353:145,1,79.9999975585938
400,172,154421,6,0,P|428:204|467:228,2,79.9999975585938,2|0|0,0:0|0:0|0:0,0:0:0:0:
433,98,154886,2,0,P|472:111|519:112,2,79.9999975585938
367,52,155352,1,0,0:0:0:0:
398,171,155545,1,4,0:0:0:0:
256,192,155662,12,0,156476,0:0:0:0:
