osu file format v12

[General]
AudioFilename: be3cc95ff685.mp3
AudioLeadIn: 2000
PreviewTime: 47522
Countdown: 0
SampleSet: Normal
StackLeniency: 0.6
Mode: 0
LetterboxInBreaks: 0
WidescreenStoryboard: 0

[Editor]
Bookmarks: 172,3892,18776,26218,33660,48544,55985,63427,78311,85753,93195,100637,108078,116451,119241,122962,130404,152730
DistanceSpacing: 0.8
BeatDivisor: 4
GridSize: 4

[Metadata]
Title:Threw It On The Ground
TitleUnicode:Threw It On The Ground
Artist:The Lonely Island
ArtistUnicode:The Lonely Island
Creator:Sonnyc
Version:Easy
Source:
Tags:tli snl turtleneck chain rap andy samberg elijah wood ryan reynolds
BeatmapID:317637
BeatmapSetID:108063

[Difficulty]
HPDrainRate:2
CircleSize:3
OverallDifficulty:2
ApproachRate:3
SliderMultiplier:1
SliderTickRate:1

[Events]
//Background and Video events
0,0,"bg.jpg",0,0
Video,-218,"vd.avi"
//Break Periods
//Storyboard Layer 0 (Background)
//Storyboard Layer 1 (Fail)
//Storyboard Layer 2 (Pass)
//Storyboard Layer 3 (Foreground)
//Storyboard Sound Samples
//Background Colour Transformations
3,100,0,0,0

[TimingPoints]
197,465.116279069767,4,2,1,45,1,0
18801,-100,4,1,1,60,0,1
32755,-100,4,2,1,45,0,0
48569,-100,4,1,1,60,0,1
62522,-100,4,2,1,45,0,0
78336,-100,4,1,1,60,0,1
92290,-100,4,2,1,45,0,0
100662,-100,4,1,1,60,0,1
107406,-100,4,1,1,60,0,0
108103,-100,4,2,1,45,0,0
115545,-100,4,1,1,60,0,0
119266,-100,4,2,1,45,0,0
122987,-100,4,1,1,60,0,1
129499,-100,4,2,1,45,0,0
152755,-100,4,1,1,60,0,1
155545,-100,4,2,1,45,0,0
156165,-100,4,2,1,5,0,0

[Colours]
Combo1 : 17,254,176
Combo2 : 173,255,95
Combo3 : 255,88,100
Combo4 : 255,94,55

[HitObjects]
136,96,197,6,0,P|88:176|112:280,1,200,0|8,0:0|0:0,0:0:0:0:
220,324,1824,2,0,B|248:256|204:200|204:200|228:140|292:132,1,250,2|4,0:0|0:0,0:0:0:0:
448,168,3917,5,0,0:0:0:0:
368,304,4848,2,0,B|272:316|272:316|216:316,1,150,8|2,0:0|0:0,0:0:0:0:
120,244,6243,2,0,P|148:216|224:196,1,100,0|8,0:0|0:0,0:0:0:0:
364,216,7638,5,0,0:0:0:0:
260,92,8569,2,0,P|184:72|112:72,1,150,8|2,0:0|0:0,0:0:0:0:
48,172,9964,1,0,0:0:0:0:
76,248,10429,1,12,0:0:0:0:
232,280,11359,6,0,B|328:260|284:184|380:156,1,200,0|8,0:0|0:0,0:0:0:0:
500,144,12987,2,0,P|476:80|400:36,1,150,2|0,0:0|0:0,0:0:0:0:
328,36,14150,1,8,0:0:0:0:
172,68,15080,5,0,0:0:0:0:
248,208,16010,2,0,B|192:240|128:220|128:220|112:220|96:228,1,150,8|2,0:0|0:0,0:0:0:0:
160,328,17406,2,0,P|220:328|260:316,1,100,0|4,0:0|0:0,0:0:0:0:
396,236,18801,6,0,L|432:136,1,100,4|0,0:0|0:0,0:0:0:0:
356,112,19731,2,0,B|324:206|324:206|280:232,2,150,8|2|0,0:0|0:0|0:0,0:0:0:0:
284,80,21592,1,8,0:0:0:0:
124,96,22522,6,0,P|72:112|44:160,1,100
124,176,23452,2,0,B|105:229|50:234|50:234|16:236|-4:256,2,150,8|2|0,0:0|0:0|0:0,0:0:0:0:
124,96,25313,1,8,0:0:0:0:
284,96,26243,6,0,B|352:96|408:140|480:140,1,200,4|8,0:0|0:0,0:0:0:0:
480,260,27871,2,0,P|480:264|376:340,1,150,2|0,0:0|0:0,0:0:0:0:
400,264,29034,1,8,0:0:0:0:
248,208,29964,6,0,P|244:208|72:288,1,200,0|8,0:0|0:0,0:0:0:0:
8,184,31592,2,0,P|0:160|36:44,1,150,2|0,0:0|0:0,0:0:0:0:
114,45,32755,1,12,0:0:0:0:
300,112,33917,6,0,B|360:120|392:84|392:84|424:96|440:116,1,150,0|8,0:0|0:0,0:0:0:0:
484,220,35313,2,0,B|460:236|424:232|424:232|420:272|392:300|352:300,1,150,2|0,0:0|0:0,0:0:0:0:
292,304,36476,1,8,0:0:0:0:
204,172,37406,6,0,P|172:136|20:116,1,200,0|8,0:0|0:0,0:0:0:0:
24,232,39034,2,0,B|40:264|80:272|116:260|116:260|128:280|148:292,1,150,2|0,0:0|0:0,0:0:0:0:
224,320,40196,1,8,0:0:0:0:
384,296,41127,6,0,P|444:256|484:136,1,200,0|8,0:0|0:0,0:0:0:0:
384,72,42755,2,0,B|336:48|288:76|288:76|240:104|192:92|192:92|152:120,1,250,2|8,0:0|0:0,0:0:0:0:
36,232,44848,5,0,0:0:0:0:
160,332,45778,2,0,P|272:340|336:280,1,200,8|0,0:0|0:0,0:0:0:0:
380,132,47638,1,12,0:0:0:0:
256,28,48569,6,0,B|224:124|288:128|256:224,2,200,4|8|0,0:0|0:0|0:0,0:0:0:0:
132,132,51359,1,8,0:0:0:0:
176,284,52290,6,0,P|301:322|336:284,2,200,0|8|0,0:0|0:0|0:0,0:0:0:0:
256,144,55080,1,8,0:0:0:0:
412,184,56010,6,0,P|412:188|324:360,2,200,4|8|0,0:0|0:0|0:0,0:0:0:0:
336,44,58801,1,8,0:0:0:0:
176,44,59731,5,0,0:0:0:0:
100,184,60662,2,0,P|100:188|188:360,2,200,8|0|12,0:0|0:0|0:0,0:0:0:0:
160,36,63452,6,0,B|256:8|256:8|352:36,1,200,0|8,0:0|0:0,0:0:0:0:
352,196,65313,2,0,B|256:224|256:224|160:196,1,200,0|8,0:0|0:0,0:0:0:0:
12,260,67173,5,0,0:0:0:0:
156,328,68103,2,0,B|184:340|216:340|240:316|272:316|296:340|328:340|356:328,1,200,8|0,0:0|0:0,0:0:0:0:
500,260,69964,1,12,0:0:0:0:
440,112,70894,6,0,B|420:72|372:64|372:64|364:100|336:132|296:140,1,200,0|8,0:0|0:0,0:0:0:0:
216,140,72290,2,0,B|176:132|148:100|140:64|140:64|92:72|72:112,1,200,0|0,0:0|0:0,0:0:0:0:
40,184,73685,1,8,0:0:0:0:
144,308,74615,5,0,0:0:0:0:
192,156,75545,2,0,P|256:92|320:156,1,200,8|0,0:0|0:0,0:0:0:0:
368,308,77406,1,12,0:0:0:0:
256,192,78336,6,0,B|204:116|308:80|256:4,2,200,4|8|0,0:0|0:0|0:0,0:0:0:0:
144,308,81127,1,8,0:0:0:0:
32,192,82057,6,0,P|44:116|136:40,2,200,0|8|0,0:0|0:0|0:0,0:0:0:0:
144,308,84848,1,8,0:0:0:0:
256,192,85778,6,0,P|324:152|440:164,2,200,4|8|0,0:0|0:0|0:0,0:0:0:0:
368,308,88569,1,8,0:0:0:0:
208,308,89499,6,0,B|108:308|108:308|16:264,2,200,0|8|0,0:0|0:0|0:0,0:0:0:0:
256,156,92290,1,12,0:0:0:0:
380,56,93220,6,0,P|416:100|396:240,1,200,0|8,0:0|0:0,0:0:0:0:
272,328,95080,2,0,P|176:320|128:232,1,200,0|8,0:0|0:0,0:0:0:0:
124,76,96941,5,0,0:0:0:0:
284,76,97871,2,0,B|384:76|384:76|472:128,1,200,8|0,0:0|0:0,0:0:0:0:
496,204,99266,2,0,P|500:240|480:304,1,100,0|12,0:0|0:0,0:0:0:0:
324,320,100662,6,0,B|236:324|236:324|180:328|128:300,2,200,4|8|0,0:0|0:0|0:0,0:0:0:0:
364,164,103452,1,8,0:0:0:0:
256,44,104383,6,0,B|168:88|168:88|116:116|68:84,2,200,0|8|0,0:0|0:0|0:0,0:0:0:0:
416,48,107173,2,0,P|448:72|484:136,1,100,8|0,0:0|0:0,0:0:0:0:
492,204,108103,6,0,P|480:264|368:336,1,200,0|8,0:0|0:0,0:0:0:0:
240,244,109964,2,0,P|148:196|40:224,1,200,0|8,0:0|0:0,0:0:0:0:
128,356,111824,5,0,0:0:0:0:
276,292,112755,2,0,P|288:224|276:144,1,150,8|2,0:0|0:0,0:0:0:0:
240,72,113917,2,0,B|224:40|196:16|196:16|116:24,1,150,0|8,0:0|0:0,0:0:0:0:
80,180,115545,6,0,P|72:216|80:280,1,100,4|0,0:0|0:0,0:0:0:0:
128,344,116476,2,0,B|160:312|204:308|236:336|276:340|316:304,2,200,8|0|12,0:0|0:0|0:2,0:0:0:0:
256,248,119266,6,0,B|300:208|356:232|356:232|408:256|448:224,1,200,0|8,0:0|0:0,0:0:0:0:
476,72,121127,2,0,P|412:36|288:28,1,200,0|8,0:0|0:0,0:0:0:0:
144,100,122987,6,0,B|100:120|48:120|48:120|12:160|12:212,2,200,4|8|0,0:0|0:0|0:0,0:0:0:0:
256,216,125778,1,8,0:0:0:0:
368,100,126708,6,0,B|412:120|464:120|464:120|500:160|500:212,2,200,0|8|0,0:0|0:0|0:0,0:0:0:0:
256,216,129499,1,12,0:0:0:0:
152,336,130429,6,0,P|96:300|56:176,2,200,0|8|0,0:0|0:0|0:0,0:0:0:0:
232,324,132755,2,0,P|288:316|336:320,1,100,0|8,0:0|0:0,0:0:0:0:
488,300,134150,6,0,P|512:244|480:108,1,200,0|8,0:0|0:0,0:0:0:0:
324,88,136010,2,0,B|264:88|264:88|204:140|120:108,1,200,0|8,0:0|0:0,0:0:0:0:
56,80,137406,1,0,0:0:0:0:
28,156,137871,6,0,P|8:232|28:352,1,200,0|8,0:0|0:0,0:0:0:0:
172,284,139731,2,0,B|228:248|300:272|300:272|360:240,1,200,0|8,0:0|0:0,0:0:0:0:
476,132,141592,5,0,0:0:0:0:
496,292,142522,1,8,0:0:0:0:
348,352,143452,2,0,B|272:352|236:292|160:292,1,200,0|12,0:0|0:0,0:0:0:0:
36,192,145313,6,0,P|68:128|184:64,1,200,0|8,0:0|0:0,0:0:0:0:
335,65,147173,2,0,P|424:107|476:192,1,200,0|8,0:0|0:0,0:0:0:0:
392,328,149034,6,0,P|352:344|296:328,1,100
232,284,149964,2,0,P|168:252|48:288,1,200,8|0,0:0|0:0,0:0:0:0:
188,368,151824,1,8,0:0:0:0:
340,316,152755,6,0,B|392:296|396:240|396:240|452:232|472:180,2,200,4|8|0,0:0|0:0|0:0,0:0:0:0:
256,192,155080,12,0,156476,0:0:0:0:
