osu file format v14

[General]
AudioFilename: haaaaaaaaaaaah.mp3
AudioLeadIn: 0
PreviewTime: 7165
Countdown: 0
SampleSet: Soft
StackLeniency: 0.7
Mode: 0
LetterboxInBreaks: 0
WidescreenStoryboard: 1

[Editor]
DistanceSpacing: 1.3
BeatDivisor: 4
GridSize: 4
TimelineZoom: 1.4

[Metadata]
Title:The Creep (feat. Nicki Minaj & John Waters)
TitleUnicode:The Creep (feat. Nicki Minaj & John Waters)
Artist:The Lonely Island
ArtistUnicode:The Lonely Island
Creator:TicClick
Version:Haaaaard
Source:
Tags:Seikatu EvilElvis Turtleneck And Chain
BeatmapID:744120
BeatmapSetID:336207

[Difficulty]
HPDrainRate:7
CircleSize:4
OverallDifficulty:7.5
ApproachRate:8.5
SliderMultiplier:1.7
SliderTickRate:1

[Events]
//Background and Video events
0,0,"maxresdefault.jpg",0,0
//Break Periods
2,92663,94475
//Storyboard Layer 0 (Background)
//Storyboard Layer 1 (Fail)
//Storyboard Layer 2 (Pass)
//Storyboard Layer 3 (Foreground)
//Storyboard Sound Samples

[TimingPoints]
225,447.761194029851,4,2,1,40,1,0
7109,-100,4,2,1,10,0,0
7221,-100,4,2,1,40,0,0
20094,-100,4,2,0,40,0,0
20206,-100,4,2,1,40,0,0
20542,-100,4,2,0,40,0,0
20654,-100,4,2,1,40,0,0
21213,-100,4,2,0,40,0,0
21549,-100,4,2,1,40,0,0
26810,-100,4,2,1,20,0,0
26922,-100,4,2,1,40,0,0
27258,-100,4,2,1,20,0,0
27370,-100,4,2,1,40,0,0
30616,-100,4,2,0,40,0,0
30728,-100,4,2,1,40,0,0
31288,-100,4,2,0,40,0,0
31400,-100,4,2,1,40,0,0
35766,-100,4,2,1,10,0,0
35877,-100,4,2,1,40,0,0
41139,-100,4,2,1,10,0,0
41251,-100,4,2,1,40,0,0
41586,-100,4,2,1,10,0,0
41698,-100,4,2,1,40,0,0
48527,-100,4,2,1,20,0,0
48639,-100,4,2,1,40,0,0
49198,-100,4,2,1,10,0,0
49310,-100,4,2,1,40,0,0
63079,-100,4,2,0,40,0,0
63191,-100,4,2,1,40,0,0
63527,-100,4,2,0,40,0,0
63639,-100,4,2,1,40,0,0
64198,-100,4,2,0,40,0,0
64534,-100,4,2,1,40,0,0
69795,-100,4,2,1,20,0,0
69907,-100,4,2,1,40,0,0
77183,-100,4,2,1,20,0,0
77295,-100,4,2,1,40,0,0
77855,-100,4,2,1,20,0,0
77967,-100,4,2,1,40,0,0
78303,-100,4,2,1,10,0,0
78415,-100,4,2,1,40,0,0
84572,-100,4,2,1,20,0,0
84683,-100,4,2,1,40,0,0
91288,-100,4,2,1,20,0,0
91400,-100,4,2,1,40,0,0
91736,-100,4,2,1,20,0,0
91848,-100,4,2,1,40,0,0
92407,-100,4,2,1,10,0,0
92519,-100,4,2,1,40,0,0
97557,-100,4,2,0,40,0,0
97669,-100,4,2,1,40,0,0
99348,-100,4,2,0,40,0,0
99460,-100,4,2,1,40,0,0
100691,-100,4,2,0,40,0,0
100803,-100,4,2,1,40,0,0
102034,-100,4,2,1,20,0,0
102146,-100,4,2,1,40,0,0
102482,-100,4,2,1,20,0,0
102594,-100,4,2,1,40,0,0
104721,-100,4,2,0,40,0,0
104833,-100,4,2,1,40,0,0
106512,-100,4,2,0,40,0,0
106624,-100,4,2,1,40,0,0
108303,-100,4,2,0,40,0,0
108415,-100,4,2,1,40,0,0
110094,-100,4,2,0,40,0,0
110206,-100,4,2,1,40,0,0
110989,-100,4,2,0,40,0,0
111101,-100,4,2,1,40,0,0
113676,-100,4,2,0,40,0,0
113788,-100,4,2,1,40,0,0
119049,-100,4,2,0,40,0,0
119385,-100,4,2,1,40,0,0
119973,-100,4,2,0,40,0,0
120029,-100,4,2,1,15,0,0
120197,-100,4,2,0,40,0,0
120252,-100,4,2,1,40,0,0
120840,-100,4,2,0,40,0,0
120952,-100,4,2,1,40,0,0
123751,-100,4,2,1,20,0,0
123863,-100,4,2,1,40,0,0
124422,-100,4,2,1,20,0,0
124534,-100,4,2,1,40,0,0
125094,-100,4,2,0,40,0,0
125206,-100,4,2,1,40,0,0
139646,-100,4,2,1,10,0,0
139758,-100,4,2,1,40,0,0
149217,-142.857142857143,4,2,1,40,0,0
150560,-100,4,2,1,40,0,0
152631,-100,4,2,1,20,0,0
152743,-100,4,2,1,40,0,0
153975,-100,4,2,1,10,0,0
154086,-100,4,2,1,40,0,0
154254,-100,4,2,1,40,0,1
154366,-100,4,2,1,40,0,0

[Colours]
Combo1 : 82,86,171
Combo2 : 78,140,203

[HitObjects]
124,216,6493,5,8,0:0:0:0:
244,204,6717,1,0,0:0:0:0:
244,204,6829,1,0,0:0:0:0:
244,204,6941,2,0,L|288:196,3,42.5,0|0|8|0,0:0|0:0|0:0|0:0,0:0:0:0:
307,196,7389,6,0,P|349:202|387:221,1,85,4|0,1:2|0:0,0:0:0:0:
468,332,7836,1,0,0:0:0:0:
352,300,8060,1,0,0:0:0:0:
476,192,8284,2,0,P|480:149|478:107,1,85,8|0,0:0|0:0,0:0:0:0:
380,36,8732,1,0,0:0:0:0:
380,36,8956,1,0,0:0:0:0:
224,68,9180,6,0,P|215:109|215:152,1,85
135,56,9627,2,0,L|43:52,1,85,2|0,0:0|0:0,0:0:0:0:
35,72,9963,1,0,0:0:0:0:
18,92,10075,2,0,P|8:133|7:175,1,85,8|2,0:0|0:0,0:0:0:0:
100,244,10523,1,2,0:0:0:0:
216,240,10747,1,8,0:0:0:0:
84,360,10971,6,0,P|44:360|-4:368,1,85
220,328,11419,2,0,P|299:355|382:344,1,170,0|10,0:0|0:0,0:0:0:0:
392,224,12090,1,0,0:0:0:0:
328,124,12314,2,0,P|287:125|244:136,1,85,0|8,0:0|0:0,0:0:0:0:
448,120,12762,6,0,P|460:79|462:37,1,85,0|8,0:0|0:0,0:0:0:0:
392,224,13210,2,0,P|417:304|474:366,1,170,2|8,0:0|0:0,0:0:0:0:
512,284,13881,1,2,0:0:0:0:
364,368,14105,1,2,0:0:0:0:
228,300,14329,1,0,0:0:0:0:
312,124,14553,6,0,L|315:39,1,85,4|0,1:2|0:0,0:0:0:0:
404,184,15001,2,0,L|412:96,1,85
224,208,15448,2,0,L|208:38,1,170,10|0,0:0|0:0,0:0:0:0:
315,39,16120,1,0,0:0:0:0:
407,112,16344,6,0,P|450:109|489:92,1,85
484,224,16792,1,2,0:0:0:0:
324,164,17016,1,0,0:0:0:0:
324,164,17127,1,0,0:0:0:0:
324,164,17239,2,0,P|294:193|269:227,1,85,8|2,0:0|0:0,0:0:0:0:
356,308,17687,1,2,0:0:0:0:
180,288,17911,1,8,0:0:0:0:
140,164,18135,6,0,P|137:121|139:79,1,85
28,203,18583,2,0,P|32:288|18:372,1,170,0|8,0:0|0:0,0:0:0:0:
164,348,19254,1,0,0:0:0:0:
272,296,19478,1,0,0:0:0:0:
220,188,19702,1,8,0:0:0:0:
112,240,19926,5,0,0:0:0:0:
304,208,20150,2,0,P|345:195|387:188,1,85,2|0,0:0|0:0,0:0:0:0:
140,144,20598,2,0,P|98:137|55:135,1,85,2|8,0:0|0:0,0:0:0:0:
319,84,21045,2,0,P|361:76|404:76,1,85,0|2,0:0|0:0,0:0:0:0:
248,16,21493,1,2,0:0:0:0:
220,188,21717,6,0,B|236:228|220:272|204:316|220:357,1,170,4|0,1:2|0:0,0:0:0:0:
132,284,22389,1,0,0:0:0:0:
308,275,22613,2,0,P|299:317|309:358,1,85,10|0,0:0|0:0,0:0:0:0:
403,303,23060,1,0,0:0:0:0:
376,212,23284,6,0,P|344:184|303:172,1,85
403,303,23732,2,0,P|446:304|485:288,1,85
308,276,24180,1,0,0:0:0:0:
308,276,24292,1,0,0:0:0:0:
308,276,24404,1,8,0:0:0:0:
460,208,24627,1,0,0:0:0:0:
252,192,24851,2,0,P|209:195|168:206,1,85,0|8,0:0|0:0,0:0:0:0:
44,360,25299,6,0,P|45:283|36:190,1,170
116,112,25971,1,0,0:0:0:0:
168,206,26195,2,0,L|160:292,1,85,10|0,0:0|0:0,0:0:0:0:
260,352,26642,1,0,0:0:0:0:
348,272,26866,1,8,0:0:0:0:
284,172,27090,6,0,L|276:87,1,85,0|8,0:0|0:0,0:0:0:0:
380,28,27538,1,0,0:0:0:0:
380,28,27762,1,0,0:0:0:0:
380,28,28657,1,0,0:0:0:0:
380,28,28881,6,0,P|408:60|425:99,1,85,4|0,1:2|0:0,0:0:0:0:
204,56,29329,2,0,P|246:52|287:41,1,85
160,268,29777,2,0,P|130:188|126:104,1,170,10|0,0:0|0:0,0:0:0:0:
224,164,30448,1,0,0:0:0:0:
12,208,30672,6,0,P|16:166|28:125,1,85,2|0,0:0|0:0,0:0:0:0:
104,48,31120,1,0,0:0:0:0:
212,52,31344,1,2,0:0:0:0:
212,52,31456,1,0,0:0:0:0:
212,52,31568,2,0,P|248:72|281:99,1,85,8|0,0:0|0:0,0:0:0:0:
420,172,32016,1,0,0:0:0:0:
388,68,32239,1,8,0:0:0:0:
313,202,32463,6,0,P|308:240|312:296,1,85,2|0,0:0|0:0,0:0:0:0:
215,151,32911,2,0,P|219:194|215:236,1,85
216,356,33359,1,8,0:0:0:0:
112,300,33583,1,0,0:0:0:0:
310,286,33807,2,0,L|402:286,1,85,2|0,0:0|0:0,0:0:0:0:
268,203,34254,6,0,P|232:227|213:264,1,85
368,216,34702,1,0,0:0:0:0:
176,156,34926,1,0,0:0:0:0:
104,236,35598,1,0,0:0:0:0:
104,236,35710,1,0,0:0:0:0:
104,236,35822,1,8,0:0:0:0:
104,236,35933,1,0,0:0:0:0:
103,236,36045,6,0,P|92:276|71:313,1,85,4|0,1:2|0:0,0:0:0:0:
208,304,36493,2,0,P|247:318|290:321,1,85
392,260,36941,1,10,0:0:0:0:
492,324,37165,1,0,0:0:0:0:
434,182,37389,2,0,P|393:171|352:180,1,85
252,232,37836,5,0,0:0:0:0:
140,236,38060,1,0,0:0:0:0:
60,156,38284,1,2,0:0:0:0:
28,300,38508,1,0,0:0:0:0:
28,300,38620,1,0,0:0:0:0:
28,300,38732,1,8,0:0:0:0:
168,336,38956,1,2,0:0:0:0:
252,232,39180,2,0,P|247:189|248:144,1,85,2|8,0:0|0:0,0:0:0:0:
140,236,39627,6,0,P|113:155|112:72,1,170
228,48,40299,1,0,0:0:0:0:
344,80,40523,2,0,P|391:68|432:52,1,85,10|0,0:0|0:0,0:0:0:0:
488,156,40971,1,0,0:0:0:0:
444,268,41195,1,8,0:0:0:0:
344,164,41419,6,0,P|303:174|263:189,1,85,0|8,0:0|0:0,0:0:0:0:
263,189,42538,1,2,0:0:0:0:
263,189,42762,1,2,0:0:0:0:
212,80,42986,1,0,0:0:0:0:
212,312,43210,6,0,P|253:319|295:317,1,85,4|0,1:2|0:0,0:0:0:0:
408,280,43657,1,0,0:0:0:0:
80,196,44105,2,0,P|37:202|-1:216,2,85,10|0|0,0:0|0:0|0:0,0:0:0:0:
184,188,44777,1,0,0:0:0:0:
276,236,45001,6,0,L|279:320,1,85
172,272,45448,1,2,0:0:0:0:
288,152,45672,1,0,0:0:0:0:
288,152,45784,1,0,0:0:0:0:
288,152,45896,2,0,L|284:67,1,85,8|2,0:0|0:0,0:0:0:0:
152,152,46344,2,0,L|160:67,1,85,2|8,0:0|0:0,0:0:0:0:
360,204,46792,6,0,P|404:200|444:176,1,85
492,76,47239,1,2,0:0:0:0:
372,91,47463,1,0,0:0:0:0:
372,91,47575,1,0,0:0:0:0:
372,91,47687,2,0,P|329:90|289:77,1,85,8|0,0:0|0:0,0:0:0:0:
168,84,48135,1,0,0:0:0:0:
240,176,48359,1,0,0:0:0:0:
176,276,48583,6,0,P|134:282|80:276,1,85,8|0,0:0|0:0,0:0:0:0:
16,196,49030,1,2,0:0:0:0:
0,284,49254,1,8,0:0:0:0:
0,108,49478,1,0,0:0:0:0:
298,228,50374,6,0,P|297:270|288:312,1,85,4|0,1:2|0:0,0:0:0:0:
392,368,50822,1,0,0:0:0:0:
508,348,51045,1,0,0:0:0:0:
460,180,51269,2,0,P|415:178|375:187,1,85,10|0,0:0|0:0,0:0:0:0:
299,80,51717,2,0,P|338:62|380:53,1,85
224,148,52165,6,0,P|181:149|139:144,2,85,0|0|2,0:0|0:0|0:0,0:0:0:0:
260,260,52836,1,0,0:0:0:0:
260,260,52948,1,0,0:0:0:0:
260,259,53060,2,0,P|255:302|255:344,1,85,8|2,0:0|0:0,0:0:0:0:
352,332,53508,1,2,0:0:0:0:
164,312,53732,1,8,0:0:0:0:
355,240,53956,6,0,P|360:197|358:155,1,85
239,28,54404,2,0,P|208:105|227:186,1,170,0|10,0:0|0:0,0:0:0:0:
312,76,55075,1,0,0:0:0:0:
148,12,55299,2,0,P|109:29|77:57,1,85,0|8,0:0|0:0,0:0:0:0:
32,184,55747,5,0,0:0:0:0:
32,184,56195,2,0,B|56:244|8:248|12:324|68:368,1,170,0|8,0:0|0:0,0:0:0:0:
164,376,56866,1,2,0:0:0:0:
272,328,57090,2,0,P|279:286|273:244,1,85
264,48,57538,6,0,L|348:37,1,85,4|0,1:2|0:0,0:0:0:0:
424,108,57986,1,0,0:0:0:0:
508,52,58210,1,0,0:0:0:0:
463,210,58433,2,0,P|421:216|380:208,1,85,10|0,0:0|0:0,0:0:0:0:
407,318,58881,2,0,P|445:335|488:336,1,85
291,288,59329,6,0,P|249:287|208:297,1,85
116,372,59777,1,2,0:0:0:0:
40,228,60001,1,0,0:0:0:0:
40,228,60113,1,0,0:0:0:0:
39,228,60225,2,0,P|80:217|123:220,1,85,8|2,0:0|0:0,0:0:0:0:
220,188,60672,1,2,0:0:0:0:
320,212,60896,1,8,0:0:0:0:
496,212,61120,6,0,P|492:160|500:124,1,85
412,76,61568,2,0,P|396:164|404:245,1,170,0|8,0:0|0:0,0:0:0:0:
508,304,62239,1,0,0:0:0:0:
392,336,62463,2,0,P|349:337|310:321,1,85,0|8,0:0|0:0,0:0:0:0:
232,256,62911,5,0,0:1:0:0:
136,292,63135,2,0,B|132:332|132:332|136:354|136:354|136:380,1,85,2|0,0:0|0:0,0:0:0:0:
48,276,63583,2,0,B|48:254|48:254|44:232|44:232|48:192,1,85,2|8,0:0|0:0,0:0:0:0:
164,108,64030,2,0,B|160:148|160:148|164:170|164:170|164:196,1,85,0|2,0:0|0:0,0:0:0:0:
64,64,64478,1,2,0:0:0:0:
276,104,64702,6,0,P|358:93|413:31,1,170,4|0,1:2|0:0,0:0:0:0:
504,76,65374,1,0,0:0:0:0:
496,175,65598,2,0,P|453:180|411:175,1,85,8|0,0:0|0:0,0:0:0:0:
364,259,66045,2,0,P|369:302|385:341,1,85
476,360,66493,5,0,0:0:0:0:
476,360,67389,1,8,0:0:0:0:
385,341,67613,1,0,0:0:0:0:
292,344,67836,2,0,P|253:350|208:368,1,85,0|8,0:0|0:0,0:0:0:0:
112,296,68284,5,2,0:0:0:0:
144,180,68508,1,0,0:0:0:0:
100,72,68732,2,0,L|4:68,1,85
200,100,69180,2,0,L|368:80,1,170,10|0,0:0|0:0,0:0:0:0:
440,16,69851,1,8,0:0:0:0:
472,160,70075,5,0,0:0:0:0:
472,160,70971,1,8,0:0:0:0:
424,260,71195,1,0,0:0:0:0:
324,216,71419,1,0,0:0:0:0:
372,116,71643,1,0,0:0:0:0:
216,244,71866,6,0,P|173:243|131:236,1,85,4|0,1:2|0:0,0:0:0:0:
123,96,72314,2,0,P|164:84|207:84,1,85
44,212,72762,2,0,L|40:124,1,85,10|0,0:0|0:0,0:0:0:0:
95,13,73210,1,0,0:0:0:0:
123,96,73433,1,0,0:0:0:0:
12,44,73657,5,0,0:0:0:0:
180,16,73881,1,0,0:0:0:0:
312,48,74105,1,2,0:0:0:0:
340,180,74329,1,0,0:0:0:0:
340,180,74441,1,0,0:0:0:0:
340,179,74553,2,0,P|335:222|342:264,1,85,8|2,0:0|0:0,0:0:0:0:
219,224,75001,2,0,P|212:184|213:139,1,85,2|8,0:0|0:0,0:0:0:0:
144,304,75448,6,0,L|59:310,1,85,2|0,0:0|0:0,0:0:0:0:
232,348,75896,2,0,L|274:351,3,42.5
304,355,76344,2,0,P|330:323|340:282,1,85,8|2,0:0|0:0,0:0:0:0:
512,292,76792,1,2,0:0:0:0:
424,344,77016,1,0,0:0:0:0:
428,212,77239,6,0,P|464:184|508:176,1,85,8|0,0:0|0:0,0:0:0:0:
348,200,77687,1,0,0:0:0:0:
348,200,77911,2,0,P|328:119|345:36,1,170,8|0,0:0|0:0,0:0:0:0:
344,35,79030,5,4,1:2:0:0:
248,72,79254,1,0,0:0:0:0:
104,180,79478,1,0,0:0:0:0:
148,88,79702,1,0,0:0:0:0:
120,276,79926,2,0,P|144:310|181:331,1,85,8|2,0:0|0:0,0:0:0:0:
32,243,80374,2,0,P|31:286|38:328,1,85,2|0,0:0|0:0,0:0:0:0:
104,180,80822,6,0,P|74:151|35:137,1,85
72,20,81269,1,2,0:0:0:0:
188,40,81493,1,0,0:0:0:0:
188,40,81605,1,0,0:0:0:0:
188,40,81717,2,0,P|231:44|273:38,1,85,8|2,0:0|0:0,0:0:0:0:
388,64,82165,1,0,0:0:0:0:
360,180,82389,1,8,0:0:0:0:
244,152,82613,6,0,P|201:147|159:152,1,85
272,232,83060,1,0,0:0:0:0:
380,264,83284,1,0,0:0:0:0:
312,160,83508,1,10,0:0:0:0:
421,149,83732,1,0,0:0:0:0:
296,80,83956,1,0,0:0:0:0:
394,41,84180,1,8,0:0:0:0:
204,80,84404,6,0,P|160:74|108:56,1,85,0|8,0:0|0:0,0:0:0:0:
51,159,84851,2,0,P|93:168|136:169,1,85,2|0,0:0|0:0,0:0:0:0:
212,252,85299,2,0,P|136:289|52:296,1,170,8|2,0:0|0:0,0:0:0:0:
192,360,85971,1,0,0:0:0:0:
344,248,86195,6,0,P|342:205|326:166,1,85,4|0,1:2|0:0,0:0:0:0:
316,48,86642,1,0,0:0:0:0:
424,0,86866,1,0,0:0:0:0:
500,92,87090,1,10,0:0:0:0:
424,0,87314,1,0,0:0:0:0:
444,195,87538,2,0,P|449:237|468:275,1,85
512,376,87986,5,0,0:0:0:0:
512,376,88881,1,8,0:0:0:0:
404,352,89105,1,2,0:0:0:0:
296,368,89329,1,2,0:0:0:0:
188,344,89553,1,8,0:0:0:0:
72,240,89777,6,0,P|63:198|63:156,1,85
179,48,90225,2,0,P|264:50|340:88,1,170,2|8,0:0|0:0,0:0:0:0:
432,64,90896,1,2,0:0:0:0:
272,156,91120,2,0,P|282:196|307:231,1,85,2|8,0:0|0:0,0:0:0:0:
408,236,91568,5,0,0:0:0:0:
476,160,91792,1,8,0:0:0:0:
432,64,92016,2,0,P|387:62|340:60,2,85
256,192,95150,12,0,96717,0:0:0:0:
304,156,96941,5,4,1:2:0:0:
404,132,97165,1,0,0:0:0:0:
220,96,97389,1,0,0:0:0:0:
320,72,97613,1,2,0:0:0:0:
120,84,97836,2,0,P|119:166|184:217,1,170,10|0,0:0|0:0,0:0:0:0:
304,204,98508,1,0,0:0:0:0:
416,248,98732,6,0,P|421:286|416:332,1,85
300,364,99180,1,2,0:0:0:0:
184,336,99404,1,2,0:0:0:0:
184,336,99516,1,0,0:0:0:0:
184,336,99627,2,0,L|88:340,1,85,8|2,0:0|0:0,0:0:0:0:
216,248,100075,1,2,0:0:0:0:
52,252,100299,1,8,0:0:0:0:
288,295,100523,6,0,P|299:255|296:208,1,85,0|2,0:0|0:0,0:0:0:0:
412,184,100971,1,0,0:0:0:0:
428,68,101195,1,2,0:0:0:0:
320,20,101419,1,8,0:0:0:0:
240,108,101642,1,2,0:0:0:0:
414,268,101866,2,0,P|407:226|412:184,1,85,0|8,0:0|0:0,0:0:0:0:
296,252,102314,6,0,P|257:234|214:228,1,85,0|8,0:0|0:0,0:0:0:0:
112,284,102762,1,0,0:0:0:0:
112,284,104105,6,0,P|191:312|276:317,1,170,4|0,1:2|0:0,0:0:0:0:
84,204,104777,1,2,0:0:0:0:
220,240,105001,2,0,P|300:240|412:208,1,170,10|0,0:0|0:0,0:0:0:0:
420,104,105672,1,0,0:0:0:0:
455,263,105896,6,0,P|463:305|457:347,2,85,0|0|2,0:0|0:0|0:0,0:0:0:0:
340,224,106568,1,2,0:0:0:0:
340,224,106680,1,0,0:0:0:0:
340,224,106792,1,8,0:0:0:0:
220,240,107016,1,2,0:0:0:0:
204,124,107239,1,2,0:0:0:0:
324,108,107463,1,8,0:0:0:0:
88,104,107687,6,0,P|50:85|24:52,1,85
180,52,108135,1,0,0:0:0:0:
120,180,108359,1,2,0:0:0:0:
120,180,108471,1,0,0:0:0:0:
120,180,108583,2,0,P|104:218|100:261,1,85,8|0,0:0|0:0,0:0:0:0:
200,324,109030,1,2,0:0:0:0:
312,280,109254,1,8,0:0:0:0:
243,64,109478,6,0,P|218:143|246:222,1,170
444,220,110150,1,2,0:0:0:0:
344,196,110374,1,8,0:0:0:0:
424,120,110598,1,2,0:0:0:0:
272,136,110822,1,0,0:0:0:0:
344,36,111045,1,2,0:0:0:0:
132,108,111269,6,0,P|91:120|48:122,1,85,4|0,1:2|0:0,0:0:0:0:
212,104,111717,2,0,P|254:107|291:127,1,85,0|2,0:0|0:0,0:0:0:0:
324,268,112165,1,10,0:0:0:0:
392,176,112389,1,0,0:0:0:0:
400,312,112613,1,0,0:0:0:0:
308,168,112836,1,0,0:0:0:0:
256,328,113060,5,0,0:0:0:0:
136,168,113284,1,0,0:0:0:0:
240,232,113508,1,0,0:0:0:0:
140,348,113732,1,2,0:0:0:0:
140,348,113844,1,0,0:0:0:0:
140,348,113956,1,8,0:0:0:0:
40,284,114180,1,0,0:0:0:0:
40,284,114627,1,8,0:0:0:0:
120,196,114851,6,0,P|122:157|116:112,1,85
164,288,115299,1,0,0:0:0:0:
164,288,115747,1,10,0:0:0:0:
303,315,115971,1,0,0:0:0:0:
196,235,116195,1,0,0:0:0:0:
352,232,116419,1,10,0:0:0:0:
228,184,116642,5,0,0:0:0:0:
392,144,116866,1,8,0:0:0:0:
260,136,117090,2,0,P|218:126|186:101,1,85,2|0,0:0|0:0,0:0:0:0:
232,248,117538,2,0,P|246:329|312:381,1,170,8|0,0:0|0:0,0:0:0:0:
48,264,118433,5,4,0:0:0:0:
232,248,118657,1,0,0:0:0:0:
48,264,118881,1,0,0:0:0:0:
232,248,119105,1,2,0:0:0:0:
48,264,119329,2,0,P|43:307|48:349,1,85,2|0,0:0|0:0,0:0:0:0:
120,232,119777,1,0,0:0:0:0:
252,360,120001,6,0,L|288:356,4,21.25,2|0|0|0|2,0:0|0:0|0:0|0:0|0:0,0:0:0:0:
352,319,120672,2,0,P|364:279|360:237,1,85,0|2,0:0|0:0,0:0:0:0:
352,220,121008,1,0,0:0:0:0:
344,200,121120,2,0,P|384:187|426:188,1,85,8|0,0:0|0:0,0:0:0:0:
426,188,121792,1,8,0:0:0:0:
259,224,122016,6,0,P|217:220|178:203,1,85
65,331,122463,2,0,P|106:325|143:304,1,85,2|0,0:0|0:0,0:0:0:0:
260,316,122911,1,8,0:0:0:0:
344,232,123135,1,2,0:0:0:0:
300,120,123359,2,0,L|200:108,1,85,2|0,0:0|0:0,0:0:0:0:
388,92,123807,6,0,L|472:102,1,85,8|0,0:0|0:0,0:0:0:0:
292,44,124254,2,0,L|207:33,1,85,0|8,0:0|0:0,0:0:0:0:
144,176,124702,2,0,L|228:186,1,85,8|0,0:0|0:0,0:0:0:0:
40,216,125150,2,0,P|26:256|31:297,1,85,2|0,0:0|0:0,0:0:0:0:
200,108,125598,6,0,L|204:24,1,85,4|0,1:2|0:0,0:0:0:0:
84,156,126045,1,0,0:0:0:0:
188,236,126269,1,0,0:0:0:0:
316,216,126493,2,0,L|320:132,1,85,10|0,0:0|0:0,0:0:0:0:
224,264,126941,1,0,0:0:0:0:
336,308,127165,1,0,0:0:0:0:
448,264,127389,6,0,L|451:179,1,85
372,112,127836,1,2,0:0:0:0:
484,64,128060,1,0,0:0:0:0:
484,64,128172,1,0,0:0:0:0:
484,64,128284,1,8,0:0:0:0:
328,40,128508,1,2,0:0:0:0:
132,56,128732,1,2,0:0:0:0:
232,68,128956,1,8,0:0:0:0:
119,156,129180,6,0,P|78:167|36:169,1,85
163,322,129627,2,0,P|209:251|219:167,1,170,0|10,0:0|0:0,0:0:0:0:
308,116,130299,1,0,0:0:0:0:
296,268,130523,2,0,P|283:308|281:350,1,85,0|8,0:0|0:0,0:0:0:0:
384,240,130971,5,0,0:0:0:0:
383,239,131419,2,0,P|328:180|247:191,1,170,0|8,0:0|0:0,0:0:0:0:
148,256,132090,1,2,0:0:0:0:
148,256,132314,1,2,0:0:0:0:
28,256,132538,1,0,0:0:0:0:
159,156,132762,6,0,P|159:113|149:72,1,85,4|0,1:2|0:0,0:0:0:0:
252,32,133210,1,0,0:0:0:0:
348,84,133433,1,0,0:0:0:0:
292,188,133657,1,10,0:0:0:0:
356,288,133881,1,0,0:0:0:0:
356,288,134105,2,0,P|397:280|436:264,1,85
236,291,134553,6,0,P|236:334|244:376,1,85
292,188,135001,1,2,0:0:0:0:
212,100,135225,1,0,0:0:0:0:
212,100,135336,1,0,0:0:0:0:
212,100,135448,2,0,P|171:97|124:104,1,85,8|2,0:0|0:0,0:0:0:0:
104,204,135896,1,2,0:0:0:0:
76,16,136120,1,8,0:0:0:0:
275,39,136344,6,0,P|317:48|360:48,1,85
432,124,136792,2,0,B|424:168|424:168|424:256|424:256|414:292,1,170,0|8,0:0|0:0,0:0:0:0:
332,380,137463,1,0,0:0:0:0:
252,292,137687,2,0,B|276:256|268:210,1,85,2|8,0:0|0:0,0:0:0:0:
120,152,138135,6,0,P|89:181|76:221,1,85,0|8,0:0|0:0,0:0:0:0:
224,148,138583,2,0,P|190:72|112:48,1,170,0|8,0:0|0:0,0:0:0:0:
264,20,139254,1,2,0:0:0:0:
344,108,139478,1,0,0:0:0:0:
344,108,139590,1,0,0:0:0:0:
344,108,139702,1,8,0:0:0:0:
344,108,139814,1,0,0:0:0:0:
344,108,139926,6,0,P|362:71|369:28,1,85,4|0,1:2|0:0,0:0:0:0:
248,132,140374,1,0,0:0:0:0:
364,216,140598,1,0,0:0:0:0:
172,196,140822,2,0,P|129:192|87:195,1,85,10|0,0:0|0:0,0:0:0:0:
36,284,141269,1,0,0:0:0:0:
124,340,141493,1,0,0:0:0:0:
324,332,141717,5,0,0:0:0:0:
224,360,141941,1,0,0:0:0:0:
336,232,142165,1,0,0:0:0:0:
436,204,142389,1,0,0:0:0:0:
240,200,142613,2,0,P|232:158|231:115,1,85,8|2,0:0|0:0,0:0:0:0:
164,40,143060,1,0,0:0:0:0:
76,88,143284,1,8,0:0:0:0:
272,44,143508,6,0,P|317:51|364:48,1,85
464,99,143956,2,0,P|479:182|460:265,1,170,0|10,0:0|0:0,0:0:0:0:
344,304,144627,1,0,0:0:0:0:
232,256,144851,2,0,P|223:214|225:171,1,85,0|8,0:0|0:0,0:0:0:0:
132,87,145299,6,0,P|132:130|123:172,1,85,0|8,0:0|0:0,0:0:0:0:
248,52,145747,2,0,P|328:40|404:80,1,170,0|8,0:0|0:0,0:0:0:0:
436,192,146419,1,0,0:0:0:0:
436,192,146642,1,0,0:0:0:0:
416,308,146866,1,0,0:0:0:0:
264,244,147090,5,4,1:2:0:0:
336,172,147986,1,0,0:0:0:0:
164,224,148881,5,0,0:0:0:0:
356,252,149329,2,0,P|364:283|363:311,1,59.4999981842042
363,310,149665,1,0,0:0:0:0:
363,310,149777,1,8,0:0:0:0:
256,356,150001,1,0,0:0:0:0:
256,356,150448,1,8,0:0:0:0:
112,312,150672,6,0,P|109:269|119:228,1,85,2|0,0:0|0:0,0:0:0:0:
220,168,151120,1,2,0:0:0:0:
336,196,151344,1,0,0:0:0:0:
447,160,151568,2,0,P|461:119|464:77,1,85,8|0,0:0|0:0,0:0:0:0:
336,196,152016,1,2,0:0:0:0:
424,280,152239,1,8,0:0:0:0:
220,167,152463,6,0,P|201:129|194:88,1,85,0|8,0:0|0:0,0:0:0:0:
172,248,152911,2,0,P|79:258|2:258,1,170,0|8,0:0|0:0,0:0:0:0:
116,152,153583,1,0,0:0:0:0:
168,348,153807,2,0,P|212:344|256:344,1,85,0|8,0:0|0:0,0:0:0:0:
392,284,154254,1,4,1:2:0:0:
