osu file format v5

[General]
AudioFilename: 17 Space Olympics.mp3
AudioLeadIn: 0
PreviewTime: -1
Countdown: 1
SampleSet: Normal
StackLeniency: 0.7
Mode: 0
LetterboxInBreaks: 1
EditorDistanceSpacing: 1

[Metadata]
Title:Space Olympics
Artist:The Lonely Island
Creator:eee
Version:eee
Source:
Tags:

[Difficulty]
HPDrainRate:6
CircleSize:5
OverallDifficulty:7
SliderMultiplier:1.8
SliderTickRate:1

[Events]
//Background and Video events
Video,-961,"space.wmv"
0,0,"space.png"
//Break Periods
2,55200,64238
2,95753,97980
2,102089,104950
2,125851,130137
//Storyboard Layer 0 (Background)
//Storyboard Layer 1 (Fail)
//Storyboard Layer 2 (Pass)
//Storyboard Layer 3 (Foreground)
//Storyboard Sound Samples
//Background Colour Transformations
3,100,163,162,255

[TimingPoints]
24585,633.646701030929,4,1,0,44,1,0
34493,-100,4,1,0,61,0,0
44653,-100,4,1,0,80,0,0
44861,-100,4,1,0,80,0,1
54841,-100,4,1,0,80,0,0
55000,-100,4,1,0,80,0,1
55158,-100,4,1,0,80,0,0
64956,-100,4,1,0,71,0,0
82801,-100,4,1,0,30,0,0
83592,-100,4,1,0,80,0,0
85415,-100,4,1,0,80,0,1
95474,-100,4,1,0,100,0,0
95553,-100,4,1,0,80,0,1
95632,-100,4,1,0,80,0,0
105649,-100,4,1,0,70,0,0
113374,-100,4,1,0,80,0,0
115909,-100,4,1,0,70,0,0
123196,-100,4,1,0,80,0,0
130879,-100,4,1,0,80,0,0
141152,-100,4,1,0,90,0,1
151132,-100,4,1,0,90,0,0
151291,-100,4,1,0,90,0,1
171733,-100,4,1,0,10,0,0

[Colours]
Combo1 : 182,182,182
Combo2 : 113,242,249
Combo3 : 251,36,41
Combo4 : 205,39,228

[HitObjects]
128,56,24584,5,4
88,176,24901,5,0
120,256,25218,1,8
168,176,25535,1,0
184,216,25693,1,0
208,256,25852,1,4
248,336,26169,1,4
288,320,26327,1,8
368,280,26644,1,0
424,104,27436,5,0
352,160,27753,1,8
312,80,28070,1,0
272,160,28386,1,4
200,104,28703,1,4
208,192,29020,2,0,B|168:232|264:224|192:272,3,90,8|0|4|0
128,312,30287,5,8
80,232,30604,1,0
128,152,30921,2,0,B|152:96|224:120,1,90,4|0
240,128,31396,1,0
328,152,31713,1,0
408,264,32188,1,4
328,304,32505,1,0
240,272,32822,1,8
200,240,32980,5,0
184,200,33139,1,0
184,152,33297,2,0,B|248:136|280:136,1,90
320,144,33772,5,0
360,160,33931,1,0
384,192,34089,1,0
384,240,34248,1,0
256,328,34723,1,4
168,320,35040,5,0
128,296,35198,1,0
120,248,35356,1,0
144,160,35673,2,0,B|160:104|256:120,2,90,0|4|4
176,192,36465,1,0
264,216,36782,1,0
352,112,37257,1,4
384,144,37416,5,0
392,184,37574,1,0
400,272,37891,1,8
320,312,38208,1,0
304,224,38525,2,4,B|256:256|216:184,1,90
184,120,39158,1,8
144,328,40109,5,0
72,272,40426,1,8
72,184,40742,1,0
80,136,40901,1,0
112,104,41059,2,4,B|176:64|232:80,1,90
208,120,41535,2,0,B|160:128|120:160,1,90
424,328,42485,5,0
424,280,42643,1,0
424,192,42960,1,0
400,152,43119,1,0
360,128,43277,1,2
312,120,43435,1,2
264,120,43594,2,0,B|160:120,1,90,2|0
128,136,44069,1,2
104,176,44228,2,2,B|80:232,1,45
96,264,44544,1,2
168,312,44861,5,4
256,312,45178,1,0
304,312,45336,1,8
344,312,45495,1,8
344,224,45812,1,0
296,224,45970,1,0
296,176,46128,1,4
248,176,46287,1,4
248,128,46445,1,4
160,128,46762,5,8
112,208,47079,1,4
160,288,47396,1,4
248,288,47713,1,0
296,288,47871,1,8
336,288,48029,1,8
376,208,48346,2,0,B|376:152,1,45,0|0
360,120,48663,2,4,B|312:88,1,45
280,88,48980,2,4,B|216:112|232:64|184:80,1,90
96,168,49772,5,4
96,216,49930,1,0
144,288,50247,1,0
176,320,50406,1,8
216,296,50564,1,8
352,184,51198,2,4,B|392:144|344:128,1,45
352,104,51514,1,0
264,104,51831,1,8
256,192,52148,12,4,55000
392,80,65138,5,4
312,120,65455,1,8
272,144,65613,1,8
224,152,65772,2,4,B|176:152|160:208,1,90
160,248,66247,1,8
184,280,66405,2,4,B|224:304|288:280,1,90
304,256,66880,2,8,B|312:216|352:272|360:200,1,90
360,152,67356,1,4
312,72,67672,1,4
224,72,67989,5,2
184,88,68148,1,2
152,120,68306,2,2,B|96:160|112:208,1,90
144,272,68940,1,4
224,304,69257,1,4
304,272,69573,1,4
224,224,69890,1,0
224,176,70049,1,8
224,128,70207,1,8
312,96,70524,6,4,B|384:64|392:152,1,90
328,184,71158,1,8
320,272,71474,2,4,B|256:312|248:232,1,90
240,208,71950,2,8,B|264:168|184:144,1,90
144,144,72425,1,8
88,72,72742,1,4
440,192,73534,5,0
392,192,73692,1,0
344,192,73851,2,0,B|208:192,1,112.5
48,320,75118,5,0
48,272,75276,1,0
72,184,75593,1,8
144,128,75910,1,0
184,120,76068,1,0
312,144,76544,2,4,B|384:168|352:192,1,45
344,248,77019,1,4
312,280,77177,1,0
264,288,77336,1,4
216,288,77494,1,0
216,200,77811,1,0
176,176,77969,6,8,B|176:120,1,45
256,104,78444,1,0
328,152,78761,1,8
400,104,79078,1,0
456,168,79395,1,0
384,224,79712,1,8
312,272,80029,1,0
264,280,80187,1,4
216,272,80345,1,4
168,264,80504,5,0
136,224,80662,1,0
152,136,80979,2,0,B|200:96|256:120,1,90
320,144,81613,2,4,B|368:184|328:232,1,90
288,232,82088,1,8
200,208,82405,1,4
152,208,82563,1,0
104,224,82722,1,0
56,248,82880,1,0
112,312,83197,5,4
200,328,83514,1,0
240,328,83672,1,0
280,320,83830,1,2
312,296,83989,1,2
336,256,84147,1,2
344,168,84464,1,2
360,128,84623,1,0
336,88,84781,1,2
296,72,84939,1,2
248,72,85098,1,2
160,96,85415,5,0
88,152,85731,1,0
88,192,85890,1,0
88,232,86048,1,0
176,240,86365,2,0,C|176:288,1,45
176,328,86682,2,0,C|128:368,1,45
96,360,86999,1,0
8,336,87316,1,0
64,256,87632,5,4
120,184,87949,1,4
208,160,88266,1,0
248,136,88424,1,0
248,176,88583,1,8
336,152,88900,5,0
376,136,89058,1,0
376,176,89216,1,8
368,312,89692,2,4,B|312:304|272:272,1,90
264,192,90325,2,0,B|264:72,1,90
232,64,90801,1,4
144,64,91117,1,8
144,152,91434,1,0
144,192,91593,1,0
144,232,91751,1,4
144,272,91909,1,4
144,312,92068,2,0,B|200:288|200:344|256:304,1,90,4|8
256,192,92702,12,4,95553
112,192,98880,5,0
152,192,99038,1,0
192,192,99196,1,0
232,192,99355,1,4
272,192,99513,1,0
312,192,99672,1,0
352,192,99830,1,0
392,192,99988,2,0,B|432:200|432:264|368:256,1,90,4|0
352,256,100464,1,4
256,192,100939,12,4,101889
112,112,105850,5,0
112,152,106008,1,0
112,192,106167,1,0
112,232,106325,2,0,B|112:296|168:304,1,90,8|0
248,296,106959,1,4
288,280,107117,1,0
320,248,107275,1,4
336,208,107434,2,0,B|288:168|384:168|344:136,1,90
320,104,107909,1,4
232,104,108226,1,4
184,112,108384,5,0
144,128,108543,1,0
144,128,108701,1,0
128,168,108860,1,8
128,256,109176,1,0
200,208,109493,2,0,B|272:208,1,45,4|0
288,208,109810,2,0,B|336:208,1,45,4|0
408,256,110285,1,0
408,208,110444,1,8
408,208,110602,1,0
408,160,110760,1,4
392,120,110919,5,0
344,120,111077,1,0
304,104,111236,1,0
264,120,111394,2,0,B|152:120,1,90,8|0
128,120,111869,1,0
80,120,112028,1,0
80,168,112186,1,4
80,248,112503,2,8,B|80:320|128:312,1,90
168,304,112978,1,4
240,248,113295,1,4
288,248,113453,5,0
328,248,113612,1,0
392,184,113929,2,0,B|392:128,1,45,8|0
312,88,114404,1,0
264,88,114562,1,4
192,144,114879,1,0
144,144,115038,1,4
72,200,115354,1,0
256,344,115830,5,4
256,296,115988,1,0
256,248,116146,1,0
256,160,116463,2,0,B|256:208,1,45,8|0
168,200,116939,2,0,B|168:144,1,45
208,72,117414,1,0
248,72,117572,2,0,B|352:72,1,90
384,72,118047,1,4
384,160,118364,1,4
352,240,118681,5,0
304,240,118839,1,0
256,240,118998,1,0
176,288,119315,1,0
176,200,119632,1,0
96,240,119948,1,0
176,200,120265,1,0
256,152,120582,1,4
296,136,120740,1,8
336,120,120899,1,4
416,168,121216,5,0
416,256,121532,1,0
368,256,121691,1,0
368,168,122008,1,0
320,168,122166,1,0
272,168,122325,2,0,B|272:280,1,90
272,258,122958,1,0
184,256,123275,5,0
136,256,123433,1,0
136,208,123592,1,0
184,136,123909,1,0
136,136,124067,1,0
136,88,124225,1,0
184,88,124384,1,0
224,88,124542,1,0
312,88,124859,2,0,B|288:144|360:128|312:176,1,90
320,256,125493,1,0
272,256,125651,1,4
208,120,131037,6,4,B|296:88,1,90
376,248,131988,5,0
288,272,132304,1,4
240,272,132463,1,0
192,272,132621,1,0
144,272,132780,2,8,B|96:272|104:200,1,90
216,128,133572,6,4,B|248:80|272:48,1,90
448,64,134522,5,0
448,152,134839,1,4
400,152,134997,1,0
352,152,135156,1,4
304,152,135314,1,8
248,224,135631,1,8
120,264,136106,6,4,B|88:304|184:288,1,90
224,280,136582,1,0
264,272,136740,1,0
344,232,137057,1,0
376,144,137374,1,0
288,112,137690,1,0
248,128,137849,1,0
168,168,138166,1,0
264,256,138641,5,0
312,256,138799,1,4
360,256,138958,1,0
408,184,139275,1,0
400,136,139433,2,0,B|360:80,1,45
328,88,139750,1,0
240,88,140067,1,0
152,88,140383,2,0,L|144:96|152:104|144:112|152:120|144:128|152:136|144:144|152:152|152:152|144:160|152:168|144:176|152:184,1,135
151,183,141175,1,0
208,256,141492,5,0
248,272,141651,1,0
288,248,141809,1,0
288,160,142126,2,4,B|336:112|384:184,1,90
368,248,142760,1,8
368,296,142918,2,8,B|328:328|288:280,1,90
256,248,143393,1,4
208,168,143710,1,4
168,248,144027,5,0
208,232,144185,1,0
248,208,144344,1,0
272,168,144502,1,0
288,128,144661,1,0
320,48,144977,2,0,B|368:88|408:64,2,90,4|4|0
120,152,146403,5,0
104,192,146561,1,0
104,280,146878,1,8
192,280,147195,1,8
240,280,147354,1,8
280,280,147512,2,4,B|344:280|368:232,1,90
368,200,147987,1,8
360,64,148462,1,0
312,64,148621,1,0
264,64,148779,1,0
224,88,148938,5,0
144,136,149254,1,0
120,176,149413,1,0
120,224,149571,1,0
144,256,149730,1,2
224,208,150047,1,2
312,208,150363,1,2
336,240,150522,1,2
360,112,150997,6,4,B|232:112,1,90
176,112,151631,5,0
152,152,151789,1,0
176,192,151947,1,8
152,232,152106,1,8
176,272,152264,1,8
256,232,152581,2,4,B|336:232|352:176,1,90
352,160,153056,1,8
352,72,153373,1,8
304,72,153532,2,4,B|296:88|256:64|224:120,1,90
144,152,154165,5,0
56,184,154482,1,0
72,224,154640,1,0
104,256,154799,1,0
144,264,154957,1,0
184,264,155116,1,2
232,264,155274,1,2
272,256,155433,1,2
312,240,155591,1,2
352,224,155749,2,2,B|408:176|344:120,1,90
328,120,156225,1,4
232,112,156541,5,4
184,112,156700,1,0
136,112,156858,1,0
88,112,157017,1,0
88,200,157333,1,0
176,200,157650,1,4
176,240,157809,1,4
176,328,158126,1,0
264,328,158442,5,2
352,328,158759,1,4
352,240,159076,1,2
440,240,159393,1,4
392,160,159710,1,2
304,160,160026,1,4
264,240,160343,1,4
232,208,160502,1,8
224,160,160660,2,4,B|240:88|176:72,1,90
152,80,161135,1,8
88,144,161452,5,0
88,232,161769,1,8
88,280,161927,1,8
128,256,162086,1,8
272,280,162561,5,0
312,296,162719,1,0
344,264,162878,1,4
352,176,163195,1,0
312,96,163512,1,4
272,176,163828,2,2,B|240:216|144:144,1,135
72,184,164620,5,8
72,224,164779,1,0
72,312,165096,1,8
120,312,165254,1,0
208,312,165571,1,0
296,312,165888,5,2
296,224,166205,2,2,B|376:216|216:184|328:136,1,135
368,128,166838,1,8
424,192,167155,5,8
432,280,167472,1,0
392,304,167630,1,0
344,304,167789,1,4
256,304,168105,1,4
184,248,168422,1,4
104,200,168739,5,0
104,152,168898,1,8
104,104,169056,1,8
176,152,169373,1,4
248,104,169690,1,8
280,136,169848,1,8
280,176,170006,1,4
248,208,170165,1,0
208,232,170323,1,4
120,232,170640,1,4
256,192,170957,12,0,171907
