osu file format v5

[General]
AudioFilename: 17 Space Olympics.mp3
AudioLeadIn: 0
PreviewTime: -1
Countdown: 1
SampleSet: Normal
StackLeniency: 0.7
Mode: 0
LetterboxInBreaks: 1
EditorDistanceSpacing: 0.800000011920929

[Metadata]
Title:Space Olympics
Artist:The Lonely Island
Creator:eee
Version:Normal
Source:
Tags:

[Difficulty]
HPDrainRate:5
CircleSize:4
OverallDifficulty:5
SliderMultiplier:1.6
SliderTickRate:1

[Events]
//Background and Video events
Video,-961,"space.wmv"
0,0,"space.png"
//Break Periods
2,55200,63938
2,95753,97838
2,102089,104650
2,125851,129837
//Storyboard Layer 0 (Background)
//Storyboard Layer 1 (Fail)
//Storyboard Layer 2 (Pass)
//Storyboard Layer 3 (Foreground)
//Storyboard Sound Samples
//Background Colour Transformations
3,100,163,162,255

[TimingPoints]
24585,633.646701030929,4,1,0,44,1,0
34493,-100,4,1,0,61,0,0
44653,-100,4,1,0,80,0,0
44861,-100,4,1,0,80,0,1
54841,-100,4,1,0,80,0,0
55000,-100,4,1,0,80,0,1
55158,-100,4,1,0,80,0,0
64956,-100,4,1,0,71,0,0
82801,-100,4,1,0,30,0,0
83592,-100,4,1,0,80,0,0
85415,-100,4,1,0,80,0,1
95474,-100,4,1,0,100,0,0
95553,-100,4,1,0,80,0,1
95632,-100,4,1,0,80,0,0
105649,-100,4,1,0,70,0,0
113374,-100,4,1,0,80,0,0
115909,-100,4,1,0,70,0,0
123196,-100,4,1,0,80,0,0
130879,-100,4,1,0,80,0,0
141152,-100,4,1,0,90,0,1
151132,-100,4,1,0,90,0,0
151291,-100,4,1,0,90,0,1
171733,-100,4,1,0,10,0,0

[Colours]
Combo1 : 182,182,182
Combo2 : 113,242,249
Combo3 : 251,36,41
Combo4 : 205,39,228

[HitObjects]
256,192,24584,1,4
176,192,24901,5,0
176,112,25218,1,0
256,112,25535,1,0
336,112,25852,1,4
336,192,26169,1,4
336,232,26327,2,0,B|336:344,1,100
192,192,27436,5,0
256,144,27753,1,8
320,192,28070,1,0
256,240,28386,1,4
192,192,28703,2,0,B|136:224|168:168|112:184,3,80,4|8|0|0
48,216,29970,5,0
48,296,30287,1,8
128,296,30604,1,0
208,296,30921,2,4,B|312:296,1,80
328,296,31396,2,0,B|384:296|384:224,1,80,8|0
384,128,32188,1,0
224,128,32822,1,8
184,128,32980,6,0,B|144:136|232:192|112:280,2,160
304,128,34723,1,4
352,192,35040,5,8
304,256,35356,1,8
256,192,35673,1,0
304,256,35990,1,4
232,296,36307,2,0,B|168:296,1,40,4|0
112,296,36782,1,0
112,96,37574,5,0
160,152,37891,1,8
216,96,38208,1,8
272,152,38525,2,4,B|248:184|296:184|256:240,1,80
216,288,39158,1,0
48,56,40109,5,0
80,128,40426,1,8
152,160,40742,2,0,B|208:160,2,40,0|0|4
152,240,41376,2,0,B|200:240,1,40,4|0
280,240,41851,1,0
256,192,42327,12,0,44861
48,192,45178,5,0
104,136,45495,1,8
152,192,45812,1,0
200,248,46128,1,4
256,192,46445,1,4
304,128,46762,2,0,B|368:96|384:168,3,80,8|4|4|8
368,216,48029,5,0
304,264,48346,1,0
256,200,48663,2,4,B|216:184|176:256,1,80
216,304,49297,1,0
136,296,49614,1,8
112,216,49930,2,0,B|88:160|152:128,1,80,8|0
200,112,50564,1,4
280,104,50881,1,0
360,104,51198,1,4
256,192,51514,12,4,55000
256,192,65138,5,4
176,192,65455,5,0
216,256,65772,2,0,B|248:296|296:296,1,80,8|0
360,296,66405,1,4
416,240,66722,2,0,B|416:192,1,40,4|0
416,120,67197,1,0
296,104,67672,5,4
216,104,67989,5,0
160,160,68306,1,8
216,216,68623,1,0
160,272,68940,1,4
216,328,69257,1,4
272,272,69573,1,4
456,112,70524,5,0
376,112,70841,1,8
296,112,71158,1,0
216,112,71474,2,2,B|168:128|192:168|120:192,1,120
64,240,72266,1,2
176,288,72742,5,4
336,312,73375,1,4
376,312,73534,6,2,B|456:272|416:152,1,160
304,112,74643,1,8
144,152,75276,5,4
144,232,75593,1,8
224,232,75910,2,0,B|224:184,1,40,8|0
224,72,76544,2,0,B|288:72,1,40,4|0
344,72,77019,1,0
344,152,77336,1,0
344,272,77811,5,4
264,272,78128,5,0
184,272,78444,1,0
184,192,78761,1,0
112,232,79078,1,4
112,312,79395,1,4
112,232,79712,1,12
168,80,80345,5,4
248,80,80662,5,0
248,160,80979,2,2,B|248:272,1,80
328,240,81613,1,0
448,240,82088,2,0,B|448:152,1,80
328,152,82880,1,0
168,152,83514,1,0
88,152,83830,6,2,B|88:208,2,40
88,72,84464,2,0,B|144:72,1,40
168,72,84781,2,2,B|224:72,2,40
168,152,85415,5,0
248,152,85731,1,8
208,216,86048,1,8
208,296,86365,1,0
288,296,86682,2,0,B|336:296,1,40,4|0
368,296,86999,1,4
448,296,87316,1,0
448,136,87949,5,0
376,176,88266,1,8
376,96,88583,1,8
304,136,88900,5,0
224,136,89216,1,4
136,56,89692,1,0
136,136,90009,1,0
136,216,90325,2,4,B|80:240|176:240|72:304,1,120
136,344,91117,5,8
296,344,91751,1,8
240,288,92068,1,0
296,232,92385,1,4
256,192,92702,12,4,95553
120,192,99038,5,0
200,192,99355,1,2
280,192,99672,1,0
360,192,99988,1,2
440,192,100305,2,0,B|440:256,1,40
440,312,100781,2,4,B|400:344|264:296|144:312,1,280
64,288,105850,5,0
64,168,106325,1,0
144,168,106642,1,0
224,168,106959,2,0,B|280:168,2,40,4|0|4
224,208,107434,2,0,B|224:288|224:304,1,80
248,312,107909,5,0
328,312,108226,1,0
392,272,108543,5,0
448,216,108860,1,0
392,160,109176,1,0
392,80,109493,2,4,B|280:80,1,80
272,80,109968,1,0
160,128,110444,5,4
160,208,110760,1,4
184,280,111077,5,0
264,280,111394,1,0
344,280,111711,1,0
344,200,112028,2,0,B|344:144,1,40
344,80,112503,2,0,B|224:80,1,80
96,192,113612,5,0
176,192,113929,1,8
216,192,114087,1,0
216,272,114404,2,0,B|272:272,1,40
336,272,114879,1,8
336,232,115038,1,2
336,152,115354,1,2
256,88,115830,5,4
184,128,116146,5,0
104,128,116463,1,8
104,168,116622,1,0
104,288,117097,1,4
184,288,117414,1,8
224,288,117572,1,0
304,288,117889,1,4
392,104,118681,6,0,B|440:104,2,40
328,152,119315,1,8
272,208,119632,1,4
208,152,119948,1,4
144,104,120265,1,4
64,104,120582,5,0
64,184,120899,1,4
64,264,121216,5,0
144,264,121532,2,0,B|200:264,1,40,8|0
264,264,122008,2,0,B|312:264,2,40,8|0|8
264,184,122641,2,8,B|264:96,1,80
256,192,123117,12,4,125651
208,120,131037,6,4,B|296:80,1,80
352,232,131988,5,0
352,312,132304,1,8
232,312,132780,1,8
232,232,133096,1,0
200,112,133572,6,4,B|264:40,1,80
328,192,134522,5,0
288,264,134839,1,8
168,264,135314,1,8
128,192,135631,1,0
216,112,136106,5,8
216,112,136423,1,8
320,216,137057,5,0
264,272,137374,2,2,B|160:272,1,80
136,256,137849,2,2,B|96:224|96:168,1,80
160,88,138641,5,4
240,88,138958,5,0
320,88,139275,1,8
320,208,139750,1,8
320,288,140067,1,0
240,288,140383,2,2,B|96:288,1,120
40,288,141175,5,4
40,208,141492,5,0
112,248,141809,1,8
192,248,142126,1,0
264,208,142443,2,4,B|224:176|272:128,1,80
304,136,142918,2,4,B|392:136,1,80
208,288,144027,5,0
248,216,144344,1,0
288,144,144661,1,0
320,72,144977,2,4,B|384:96|424:56,2,80
168,112,146245,5,4
104,160,146561,5,0
104,240,146878,1,8
168,200,147195,1,0
168,280,147512,1,4
248,280,147829,2,0,B|304:280,1,40
408,272,148462,5,0
408,192,148779,1,4
352,128,149096,5,0
272,128,149413,1,2
352,128,149730,1,2
352,48,150047,1,2
272,48,150363,2,2,B|200:48,1,40
152,136,150997,5,8
152,216,151314,1,4
192,288,151631,6,0,B|248:288,2,40
112,288,152264,1,0
72,216,152581,2,4,B|72:88,1,120
128,40,153373,1,8
168,40,153532,5,8
248,40,153848,1,4
296,96,154165,5,0
336,160,154482,1,0
296,224,154799,1,0
224,264,155116,2,2,B|160:280|176:272,2,40
200,184,155749,1,8
176,104,156066,2,2,B|232:88,1,40
288,64,156541,2,2,B|352:64|312:144|416:192,1,160
384,280,157650,5,0
272,320,158126,1,0
192,320,158442,1,4
192,240,158759,1,8
120,280,159076,1,4
120,200,159393,1,8
120,120,159710,1,0
192,160,160026,2,0,B|240:176|296:112|240:48,2,160,8|0|8
112,248,161769,5,0
176,296,162086,1,0
304,232,162719,5,4
408,168,163195,1,8
328,160,163512,1,2
280,96,163828,2,2,B|296:48|184:64,1,120
136,120,164620,5,8
88,184,164937,1,0
136,248,165254,2,4,B|88:280,2,40
208,208,165888,5,0
272,160,166205,2,0,B|344:104|400:192,1,120
384,200,166838,1,8
384,280,167155,5,8
320,328,167472,1,0
240,328,167789,1,4
160,328,168105,1,4
200,256,168422,1,4
200,176,168739,6,2,B|144:176,2,40
280,176,169373,1,0
360,176,169690,1,2
320,248,170006,1,0
400,248,170323,1,2
440,176,170640,1,0
256,192,170957,12,0,171907
