osu file format v6

[General]
AudioFilename: 09 Shrooms (Interlude).mp3
AudioLeadIn: 2018
PreviewTime: 14886
Countdown: 1
SampleSet: Normal
StackLeniency: 0.7
Mode: 0
LetterboxInBreaks: 1

[Editor]
DistanceSpacing: 1
BeatDivisor: 4
GridSize: 8

[Metadata]
Title:Shrooms
Artist:The Lonely Island
Creator:Real1
Version:Flying
Source:
Tags:

[Difficulty]
HPDrainRate:6
CircleSize:5
OverallDifficulty:7
SliderMultiplier:2
SliderTickRate:2

[Events]
//Background and Video events
0,0,"magic mushrooms.jpg"
//Break Periods
//Storyboard Layer 0 (Background)
//Storyboard Layer 1 (Fail)
//Storyboard Layer 2 (Pass)
//Storyboard Layer 3 (Foreground)
//Storyboard Sound Samples
//Background Colour Transformations
3,100,163,162,255

[TimingPoints]
120.497365552326,468.75,4,1,0,100,1,0
29861,-100,4,2,0,100,0,0
32355,-100,4,1,0,100,0,0

[Colours]
Combo1 : 183,0,183
Combo2 : 239,5,12
Combo3 : 242,183,2
Combo4 : 108,255,255
Combo5 : 0,145,36

[HitObjects]
96,192,120,1,0
184,192,354,1,0
272,192,589,1,2
272,192,706,1,2
272,192,823,1,2
360,192,1057,1,0
448,192,1292,1,0
360,192,1526,1,2
360,192,1643,1,2
360,192,1761,1,2
56,40,1995,6,8,C|56:280,1,200
256,32,2698,2,0,C|256:344,1,300,0|8
256,192,3870,12,4,5276
48,344,6214,5,8
448,344,6682,2,0,C|448:96,1,200,8|4
256,192,7620,12,4,9495
80,64,9729,5,8
168,64,9964,1,8
192,160,10198,1,0
240,160,10315,1,0
288,160,10432,1,0
336,160,10550,1,0
192,160,10901,1,8
256,192,11370,12,0,13245
48,48,13479,6,8,C|160:48,1,100
464,352,14182,2,0,C|232:352,1,200,8|4
256,192,15120,12,0,16057
56,56,16292,5,8
144,176,16526,1,8
232,56,16761,1,8
384,56,16995,1,8
256,328,17464,2,2,C|256:120,1,200
408,144,18167,1,8
344,280,18401,1,8
408,144,18636,1,8
344,280,18870,2,8,C|112:280,1,200
88,192,20276,5,0
160,136,20511,1,0
232,192,20745,1,0
232,192,20862,1,0
232,192,20979,1,0
232,192,21097,1,0
232,192,21214,1,0
232,280,21448,1,0
232,192,21682,1,2
232,104,21917,1,2
232,192,22151,1,2
48,192,22620,6,0,C|48:312,1,100,0|8
48,88,23089,2,0,C|152:88,1,100,0|8
152,288,23557,2,0,C|152:176,1,100,0|8
352,184,24026,2,0,C|240:184,1,100,0|8
48,88,24495,2,8,C|48:200,2,100
448,72,25432,2,8,C|448:184,1,100
248,192,25901,2,8,C|376:192,1,100
192,320,26370,6,2,C|72:320,1,100
88,216,26839,1,8
88,112,27073,1,8
88,216,27307,1,8
264,192,27776,5,2
352,192,28011,1,2
440,192,28245,1,2
296,296,28714,5,0
296,296,28831,1,0
296,296,28948,1,0
296,296,29065,1,0
296,296,29182,1,0
72,192,30120,5,2
72,192,30237,1,2
72,192,30354,1,2
72,192,30472,1,2
72,192,30589,1,6
160,192,30823,5,2
160,192,30940,1,2
160,192,31057,1,2
160,192,31175,1,2
160,192,31292,1,2
160,192,31409,1,2
160,192,31526,1,6
248,192,31761,5,2
248,192,31878,1,2
248,192,31995,1,2
248,192,32112,1,2
248,192,32229,1,6
336,192,32464,6,2,C|336:296,2,100
