osu file format v5

[General]
AudioFilename: 09 - Shrooms [Explicit].mp3
AudioLeadIn: 0
PreviewTime: -1
Countdown: 1
SampleSet: Normal
StackLeniency: 0.7
Mode: 0
LetterboxInBreaks: 1

[Metadata]
Title:Shrooms
Artist:The Lonely Island
Creator:Cid246
Version:Normal
Source:Incredibad
Tags:The Lonely Island Shrooms Incredibad

[Difficulty]
HPDrainRate:5
CircleSize:4
OverallDifficulty:5
SliderMultiplier:1.4
SliderTickRate:1

[Events]
//Background and Video events
//Break Periods
//Storyboard Layer 0 (Background)
//Storyboard Layer 1 (Failing)
//Storyboard Layer 2 (Passing)
//Storyboard Layer 3 (Foreground)
//Storyboard Sound Samples
//Background Colour Transformations
3,100,163,162,255

[TimingPoints]
2224.625,234.375,4,1,0,100,1

[HitObjects]
64,128,584,1,0
64,64,818,1,0
128,64,1052,1,0
192,64,1287,1,0
192,128,1521,1,0
128,128,1755,1,0
128,192,1990,1,0
192,192,2224,1,0
448,288,2927,2,0,B|448:128|448:128,1,280
288,224,3630,1,0
224,224,3865,1,0
224,160,4099,1,0
288,160,4334,1,0
352,160,4568,1,0
352,224,4802,1,0
352,288,5037,1,0
288,288,5271,1,0
224,288,5505,1,0
224,224,5740,1,0
224,160,5974,1,0
288,160,6209,1,0
352,160,6443,1,0
416,160,6677,1,0
416,96,6912,1,0
352,96,7146,1,0
288,96,7380,1,0
224,96,7615,1,0
160,96,7849,1,0
160,160,8084,1,0
160,224,8318,1,0
256,192,8787,12,0,10427
256,192,10896,5,0
320,192,11130,1,0
384,192,11365,1,0
448,192,11599,1,0
448,128,11834,1,0
384,128,12068,1,0
320,128,12302,1,0
256,128,12537,1,0
64,192,13005,2,0,B|480:320,1,420
160,192,14177,1,0
224,192,14412,1,0
224,128,14646,1,0
160,128,14880,1,0
288,128,15115,1,0
288,192,15349,1,0
288,256,15584,1,0
224,256,15818,1,0
224,192,16052,1,0
288,192,16287,1,0
288,256,16521,1,0
224,256,16755,1,0
160,256,16990,1,0
96,256,17224,1,0
256,192,17693,12,0,18865
