osu file format v6

[General]
AudioFilename: The Lonely Island - Like A Boss.mp3
AudioLeadIn: 0
PreviewTime: 12417
Countdown: 1
SampleSet: Normal
StackLeniency: 0.7
Mode: 0
LetterboxInBreaks: 1

[Editor]
Bookmarks: 50817,76417
DistanceSpacing: 0.800000011920929
BeatDivisor: 2
GridSize: 8

[Metadata]
Title:Like a Boss
Artist:The Lonely Island
Creator:-Always-
Version:Normal
Source:
Tags:

[Difficulty]
HPDrainRate:2
CircleSize:4
OverallDifficulty:3
SliderMultiplier:1
SliderTickRate:1

[Events]
//Background and Video events
0,0,"background.png"
Video,-6800,"likeaboss.AVI"
//Break Periods
2,47460,49420
//Storyboard Layer 0 (Background)
//Storyboard Layer 1 (Fail)
//Storyboard Layer 2 (Pass)
//Storyboard Layer 3 (Foreground)
//Storyboard Sound Samples
//Background Colour Transformations
3,100,163,162,255

[TimingPoints]
9660,400,4,1,0,83,1,0
76060,-100,4,1,0,83,0,1
76860,-100,4,1,0,83,0,0

[Colours]
Combo1 : 184,219,254
Combo2 : 159,91,242
Combo3 : 50,101,101

[HitObjects]
256,192,9660,12,0,12460
112,272,12860,5,0
112,192,13260,2,0,B|56:192,2,50,8|4|4
192,192,14060,1,0
272,192,14460,1,0
352,192,14860,2,0,B|424:192,2,50,8|4|4
352,272,15660,5,0
352,192,16060,1,0
352,112,16460,2,0,B|416:112,2,50,8|4|4
272,112,17260,2,0,B|240:192|208:104,1,100
128,112,18060,2,0,B|72:112,4,50,8|4|4|0|0
80,176,19260,6,0,B|80:288,1,100,0|8
144,328,20060,1,4
224,328,20460,1,0
304,328,20860,1,0
384,328,21260,2,0,B|456:328,2,50,8|4|4
384,248,22060,6,0,B|384:184,3,50
384,160,22860,1,8
384,80,23260,2,0,B|336:32|336:152,1,100,4|0
336,208,24060,1,0
352,288,24460,2,0,B|312:256|312:256|272:288,1,100,8|4
192,288,25260,5,0
112,288,25660,1,0
152,216,26060,2,0,B|152:152,2,50,8|4|4
216,272,26860,1,0
216,192,27260,1,0
288,224,27660,2,0,B|288:280,2,50,8|4|4
368,240,28460,6,0,B|368:128,1,100
368,64,29260,2,0,B|432:64,2,50,8|4|4
288,64,30060,2,0,B|152:64,1,100
112,64,30860,2,0,B|48:64,2,50,8|4|4
128,144,31660,6,0,B|104:208,1,50
112,232,32060,2,0,B|136:296,1,50
128,320,32460,2,0,B|72:320,2,50,8|4|4
208,320,33260,2,0,B|232:256,1,50
224,232,33660,2,0,B|200:168,1,50
208,144,34060,2,0,B|264:144,2,50,8|4|4
136,184,34860,5,0
216,184,35260,1,0
176,120,35660,2,0,B|176:48,2,50,8|4|4
216,48,36460,1,0
136,48,36860,1,0
176,120,37260,2,0,B|176:192,2,50,8|4|4
256,96,38060,6,0,B|256:152|256:152|256:208,1,100
256,280,38860,1,8
336,248,39260,1,4
336,168,39660,2,0,B|368:128|368:128|336:88,1,100
272,128,40460,2,0,B|240:112|224:128,2,50,8|4|4
320,192,41260,6,0,B|240:192,2,50
400,192,42060,2,0,B|400:136,2,50,8|4|4
400,272,42860,2,0,B|352:224|304:280,1,100
232,272,43660,2,0,B|176:272,1,50,8|4
144,272,44060,1,4
112,200,44460,5,0
192,200,44860,1,0
192,120,45260,2,0,B|128:120,2,50,8|4|4
272,120,46060,2,0,B|272:56,2,50
272,200,46860,2,0,B|272:256,2,50,8|4|4
184,304,50860,6,0,B|184:184,1,100
184,128,51660,2,4,B|184:56,2,50,8|4|4
264,112,52460,2,0,B|264:224,1,100
264,296,53260,2,4,B|264:368,2,50,8|4|4
344,296,54060,6,0,B|344:360,2,50
344,216,54860,2,4,B|344:152,2,50,8|4|4
408,168,55660,2,0,B|408:104,1,50
368,112,56060,2,0,B|320:80|264:112,1,100,0|8
232,120,56660,2,4,B|208:96|184:120,1,50
112,104,57260,6,0,B|112:40,2,50
112,184,58060,2,4,B|112:264,2,50,8|4|4
192,184,58860,2,0,B|192:248,2,50
192,104,59660,2,4,B|192:40,2,50,8|4|4
272,104,60460,6,0,B|336:104,1,50
360,104,60860,2,0,B|400:160|344:216,1,100,0|8
360,240,61460,2,4,B|360:296,1,50
296,240,62060,2,0,B|224:240,6,50,0|0|0|0|8|4|4
256,168,63660,6,0,B|256:104,2,50
200,224,64460,2,0,B|200:152,2,50,8|4|4
144,280,65260,2,0,B|144:216,6,50,0|0|0|0|8|4|4
200,224,66860,6,0,B|200:152,6,50,0|0|0|0|8|4|4
280,224,68460,2,0,B|344:224,1,50
368,224,68860,2,0,B|384:232|384:232|400:224|400:224|416:232|416:232|432:224|432:224|448:232|448:232|464:224,2,100,0|8|4
368,144,70060,6,0,B|368:80,4,50,0|0|0|0|8
368,184,71060,2,4,B|320:232,1,50
264,264,71660,2,0,B|264:200,1,50
264,176,72060,2,0,B|288:128|288:128|256:72,1,100,0|8
224,88,72660,2,4,B|160:88,1,50
120,144,73260,6,0,B|56:144,4,50,0|0|0|0|8
160,144,74260,2,4,B|224:144,1,50
288,144,74860,1,0
328,208,75260,1,0
368,144,75660,2,0,B|440:144,2,50,8|4|4
