osu file format v6

[General]
AudioFilename: The Lonely Island - Like A Boss.mp3
AudioLeadIn: 0
PreviewTime: 12417
Countdown: 1
SampleSet: Normal
StackLeniency: 0.7
Mode: 0
LetterboxInBreaks: 1

[Editor]
Bookmarks: 47617,50817,76417
DistanceSpacing: 0.800000011920929
BeatDivisor: 4
GridSize: 8

[Metadata]
Title:Like a Boss
Artist:The Lonely Island
Creator:-Always-
Version:Hard
Source:
Tags:Incredibad snl saturday night live

[Difficulty]
HPDrainRate:7
CircleSize:5
OverallDifficulty:7
SliderMultiplier:2
SliderTickRate:1

[Events]
//Background and Video events
0,0,"background.png"
Video,-6800,"likeaboss.AVI"
//Break Periods
2,47460,49960
//Storyboard Layer 0 (Background)
//Storyboard Layer 1 (Fail)
//Storyboard Layer 2 (Pass)
//Storyboard Layer 3 (Foreground)
//Storyboard Sound Samples
//Background Colour Transformations
3,100,163,162,255

[TimingPoints]
9660,400,4,1,0,82,1,0
76060,-100,4,1,0,82,0,1
76860,-100,4,1,0,82,0,0

[Colours]
Combo1 : 184,219,254
Combo2 : 159,91,242
Combo3 : 50,101,101

[HitObjects]
256,192,9660,12,0,12460
72,240,12660,6,0,B|32:176|96:128,1,100
136,200,13060,1,0
216,200,13260,1,8
296,200,13460,1,4
376,200,13660,1,4
440,248,13860,5,0
360,248,14060,2,0,B|336:256|336:256|336:240|336:240|344:248|344:248|192:248,1,200
196,248,14660,1,0
136,304,14860,2,0,B|104:256|136:200,1,100,8|4
64,248,15260,1,4
64,88,15660,6,0,B|96:128|96:128|128:88,1,100
208,96,16060,1,0
288,96,16260,2,0,B|320:136|320:136|352:96,1,100,0|8
350,97,16660,1,4
432,96,16860,1,4
432,176,17060,5,0
384,240,17260,1,0
336,176,17460,1,0
288,240,17660,1,0
240,176,17860,1,0
192,240,18060,2,4,B|160:200|160:200|128:240,2,100,8|4|4
192,320,18660,5,0
112,320,18860,2,0,B|104:296|104:296|120:296|120:296|112:304|112:304|112:152,1,200
184,192,19460,1,0
264,192,19660,1,8
312,256,19860,1,4
360,192,20060,1,4
408,128,20260,5,0
328,128,20460,2,0,B|264:64|264:32|336:32|336:72|272:136,1,200
277,130,21060,1,0
200,128,21260,1,8
152,64,21460,1,4
104,128,21660,2,0,B|72:128|72:128|72:264|72:264|120:264,1,200,4|0
184,264,22260,5,0
224,336,22460,1,0
264,264,22660,1,0
304,336,22860,2,4,B|336:296|336:296|368:336,2,100,8|4|4
304,256,23460,5,0
304,176,23660,1,0
144,200,24060,2,0,B|144:128,2,66.6666666666667
96,232,24460,1,8
96,312,24660,1,4
176,312,24860,6,0,B|232:264|248:192|208:120,1,200,4|0
296,144,25460,1,0
296,144,25660,1,0
352,88,25860,1,0
408,144,26060,2,0,B|440:104|440:104|472:144,2,100,8|4|4
456,208,26660,5,0
416,272,26860,1,0
376,208,27060,1,0
328,272,27260,1,0
288,208,27460,1,0
240,272,27660,2,0,B|208:232|208:232|176:272,1,100,8|4
177,270,28060,6,0,B|96:208|96:208|184:128,1,200,4|0
248,144,28660,2,0,B|288:176|288:176|248:208,2,100
168,144,29260,1,8
208,80,29460,1,4
288,80,29660,2,0,B|408:80|408:152|272:152,1,200,4|0
216,120,30260,5,0
80,120,30460,1,0
80,256,30660,1,0
216,256,30860,1,8
216,120,31060,1,4
352,120,31260,1,4
440,256,31660,6,0,B|440:144,2,100
440,256,32260,1,0
360,256,32460,1,8
304,200,32660,1,4
280,272,32860,6,0,B|240:224|144:224|88:272,3,200,4|0|0|8
96,184,34260,1,4
96,184,34460,1,4
176,184,34660,6,0,B|224:88,1,100
220,94,35060,2,0,B|272:200,1,100
264,184,35460,1,0
344,184,35660,2,4,B|376:144|376:144|408:184,2,100,8|4|4
184,184,36460,5,0
184,264,36660,1,0
264,264,36860,2,0,B|296:232|296:192|264:168|240:168|208:192|208:232|240:264,1,200,0|8
256,336,37460,1,4
336,336,37660,1,4
416,336,37860,6,0,B|432:280|416:224,1,100
416,160,38260,1,0
416,80,38460,1,0
416,80,38660,1,0
352,120,38860,1,8
416,160,39060,1,4
416,80,39260,1,4
280,168,39660,6,0,B|256:112|280:64,2,100
280,248,40260,1,0
200,248,40460,2,0,B|168:288|168:288|136:248,2,100,8|4|4
48,192,41260,5,0
88,120,41460,1,0
120,192,41660,1,0
160,120,41860,1,0
192,192,42060,2,0,B|296:192,1,100,8|4
368,192,42460,1,4
256,72,42860,5,0
256,152,43060,1,0
256,232,43260,1,0
256,272,43360,1,0
256,312,43460,1,0
256,232,43660,1,8
192,272,43860,1,4
128,232,44060,1,4
104,72,44460,6,0,B|136:112|136:112|168:72,3,100
248,72,45260,1,8
328,72,45460,1,4
408,72,45660,1,4
392,232,46060,6,0,B|360:192|360:192|328:232,3,100
248,232,46860,1,8
168,232,47060,1,4
88,232,47260,1,4
40,272,50860,6,0,B|72:312|72:312|104:272,2,100
40,112,51660,2,4,B|72:72|72:72|104:112,2,100,8|4|4
176,192,52460,5,0
256,192,52660,1,0
336,192,52860,2,0,B|368:152|368:152|400:192,2,100,0|0|8
256,192,53460,1,4
176,192,53660,1,4
176,112,53860,5,0
96,112,54060,1,0
96,192,54260,1,0
176,192,54460,1,0
176,112,54660,1,0
96,112,54860,1,8
96,192,55060,1,4
96,272,55260,1,4
256,280,55660,6,0,B|224:240|224:240|256:200,1,100
256,120,56060,2,0,B|280:112|280:112|280:128|280:128|272:120|272:120|424:120,1,200,0|8
416,200,56660,1,4
408,280,56860,2,0,B|384:288|384:288|384:272|384:272|392:280|392:280|240:280,1,200,4|0
168,280,57460,5,0
88,280,57660,2,0,B|80:256|80:256|96:256|96:256|88:264|88:264|88:112,1,200,0|8
168,112,58260,1,4
248,112,58460,2,0,B|256:136|256:136|240:136|240:136|248:128|248:128|248:280,1,200,4|0
320,240,59060,5,0
392,272,59260,2,0,B|384:248|384:248|400:248|400:248|392:256|392:256|392:104,1,200,0|8
392,108,59860,1,4
312,104,60060,1,4
152,104,60460,5,0
72,104,60660,1,0
112,176,60860,1,0
112,336,61260,1,8
192,336,61460,1,4
272,336,61660,1,4
432,328,62060,5,0
392,256,62260,1,0
432,184,62460,1,0
392,112,62660,1,0
312,112,62860,2,4,B|280:72|280:72|248:112,2,100,8|4|4
176,192,63660,6,0,B|120:160|152:96,1,100
176,192,64060,2,0,B|208:136|272:168,1,100
176,192,64460,2,0,B|232:224|200:288,1,100,8|4
176,192,64860,2,0,B|144:248|80:216,1,100,4|0
72,144,65260,5,0
72,64,65460,1,0
144,104,65660,2,0,B|176:64|176:64|208:104,3,100,0|0|8|4
288,104,66460,1,4
424,192,66860,5,0
344,192,67060,1,0
264,192,67260,2,0,B|232:152|232:152|200:192,1,100
120,192,67660,2,4,B|88:152|88:152|56:192,2,100,8|4|4
48,336,68460,5,0
104,280,68660,1,0
160,336,68860,2,0,B|152:312|152:312|168:312|168:312|160:320|160:320|160:168,1,200,0|8
120,104,69460,1,4
120,104,69660,1,4
280,96,70060,5,8
280,176,70260,1,0
352,136,70460,1,0
352,216,70660,1,0
352,296,70860,1,8
272,296,71060,2,4,B|240:256|240:256|208:296,1,100
56,240,71660,6,0,B|96:192|64:144,1,100
136,192,72060,2,0,B|160:184|160:184|160:200|160:200|152:192|152:192|304:192,1,200,0|8
376,192,72660,1,4
376,192,72860,1,4
256,304,73260,5,0
256,224,73460,1,0
256,144,73660,1,0
184,184,73860,1,0
112,216,74060,2,0,B|80:168|112:112,1,100,8|4
184,120,74460,1,4
216,304,74860,5,0
296,304,75060,1,0
256,232,75260,1,0
296,80,75660,1,8
216,80,75860,1,4
256,152,76060,1,4
