osu file format v5

[General]
AudioFilename: 10-like-a-boss.mp3
AudioLeadIn: 0
PreviewTime: -1
Countdown: 1
SampleSet: Normal
StackLeniency: 0.7
Mode: 0
LetterboxInBreaks: 1
EditorDistanceSpacing: 0.800000011920929

[Metadata]
Title:Like A Boss
Artist:The Lonely Island
Creator:Yoshirulez
Version:Easy
Source:
Tags:

[Difficulty]
HPDrainRate:5
CircleSize:5
OverallDifficulty:5
SliderMultiplier:1.4
SliderTickRate:1

[Events]
//Background and Video events
//Break Periods
2,84202,102802
//Storyboard Layer 0 (Background)
//Storyboard Layer 1 (Failing)
//Storyboard Layer 2 (Passing)
//Storyboard Layer 3 (Foreground)
//Storyboard Sound Samples
//Background Colour Transformations
3,100,163,162,255

[TimingPoints]
2,1000,4,1,0,100,1,0

[HitObjects]
128,128,12668,1,0
224,128,13668,1,0
288,128,14335,1,0
384,128,15335,1,0
352,192,16002,1,0
256,192,16668,1,0
160,192,17668,1,0
64,224,18335,1,0
160,224,19335,1,0
224,224,20002,1,0
320,192,20668,1,0
384,128,21668,1,0
288,128,22335,1,0
192,160,23335,1,0
160,224,24002,1,0
256,256,24668,1,0
320,160,25668,1,0
224,128,26335,1,0
160,192,27335,1,0
224,224,28002,1,0
288,192,28668,1,0
352,128,29668,1,0
288,192,30335,1,0
192,192,31335,1,0
224,128,32002,1,0
256,192,32668,1,0
352,192,33668,1,0
320,256,34335,1,0
224,224,35335,1,0
224,160,36002,1,0
288,128,36668,1,0
192,192,37668,1,0
256,192,38335,1,0
320,128,39002,1,0
256,224,40002,1,0
192,160,40668,1,0
288,96,41668,1,0
224,160,42335,1,0
320,192,43335,1,0
256,160,44002,1,0
352,160,44668,1,0
256,128,45668,1,0
352,128,46335,1,0
256,128,47002,1,0
352,96,48002,1,0
256,128,48668,1,0
192,224,49668,1,0
256,128,50668,1,0
160,128,51335,1,0
256,128,52002,1,0
160,160,53002,1,0
224,160,53668,1,0
160,224,54335,1,0
256,192,55335,1,0
320,192,56002,1,0
224,160,56668,1,0
320,160,57668,1,0
224,192,58335,1,0
320,192,59335,1,0
256,192,60002,1,0
320,160,60668,1,0
224,160,61668,1,0
320,160,62335,1,0
224,96,63335,1,0
288,128,64001,1,0
192,160,64668,1,0
288,128,65668,1,0
192,128,66335,1,0
288,128,67335,1,0
352,160,68002,5,0
256,160,68668,1,0
352,128,69668,1,0
288,160,70335,1,0
224,96,71335,1,0
256,160,72002,1,0
352,160,72668,1,0
256,224,73668,1,0
192,192,74335,1,0
256,128,75002,1,0
352,160,76002,1,0
192,160,104335,5,0
288,256,104668,1,0
