osu file format v6

[General]
AudioFilename: The Lonely Island - Jizz In My Pants.mp3
AudioLeadIn: 0
PreviewTime: 10212
Countdown: 1
SampleSet: Soft
StackLeniency: 0.7
Mode: 0
LetterboxInBreaks: 1

[Editor]
DistanceSpacing: 0
BeatDivisor: 4
GridSize: 8

[Metadata]
Title:Jizz In My Pants
Artist:The Lonely Island
Creator:Kytoxid
Version:Normal
Source:
Tags:snl saturday night live

[Difficulty]
HPDrainRate:4
CircleSize:4
OverallDifficulty:4
SliderMultiplier:1.5
SliderTickRate:2

[Events]
//Background and Video events
Video,-25,"Jizz In My Pants.avi"
0,0,"JIMP.jpg"
//Break Periods
2,19749,26590
2,37454,44295
2,61061,63967
2,66962,71836
2,82700,89541
2,117373,119295
2,137782,140197
2,143683,144623
//Storyboard Layer 0 (Background)
//Storyboard Layer 1 (Fail)
//Storyboard Layer 2 (Pass)
//Storyboard Layer 3 (Foreground)
//Storyboard Sound Samples
//Background Colour Transformations
3,100,0,0,0

[TimingPoints]
4304,491.804243666476,4,2,0,100,1,0
120395,-100,4,1,0,55,0,1
138100,-100,4,1,0,55,0,0
145477,-100,4,2,0,0,0,0

[Colours]
Combo1 : 128,64,0
Combo2 : 128,0,0
Combo3 : 0,128,128
Combo4 : 0,128,64

[HitObjects]
208,120,4304,2,2,B|240:56|112:120,6,75,0|0|8|0|0|2|2
304,88,6271,2,2,B|272:152|400:88,6,75,0|0|8|0|0|2|2
256,184,8238,5,0
168,248,8730,1,2
80,184,9222,1,2
168,128,9713,1,2
256,192,10205,6,0,B|152:88|0:248|248:344|360:344|360:344,1,412.5,0|4
448,256,12172,6,0,B|404:150|486:159|481:93|406:6,2,225
344,232,14140,1,0
304,328,14631,1,2
200,328,15123,1,0
160,232,15615,1,2
64,184,16107,6,0,C|152:104,2,75,0|0|8
64,128,16845,1,2
64,72,17090,2,0,B|152:72,1,75
192,72,17582,1,4
256,192,17951,12,4,19549
408,128,27910,5,2
248,128,28648,1,2
352,128,29140,1,2
400,128,29386,1,6
400,232,29877,6,2,B|176:232,1,150,2|10
248,280,30615,1,2
248,328,30861,2,2,B|88:328,1,150,2|10
96,272,31599,1,2
96,216,31845,2,2,B|320:216,1,150,2|10
248,160,32582,1,2
248,104,32828,2,2,B|408:104,1,150,2|10
320,192,33812,6,12,B|304:272|448:352|480:192|448:0|256:32|144:136|272:312,1,600,2|6
104,304,36517,1,6
104,200,37008,1,2
104,144,37254,1,6
256,192,45615,5,4
168,128,46107,1,8
80,72,46599,1,0
80,176,47090,1,0
80,280,47582,5,0
168,224,48074,1,8
256,176,48566,1,2
256,176,48812,2,2,L|288:208,1,37.5
256,32,49549,5,2
352,72,50041,1,8
400,168,50533,1,2
360,264,51025,2,0,B|176:264,1,150,0|2
280,184,52009,1,8
368,128,52500,1,0
432,64,52992,1,4
328,64,53484,5,2
224,64,53976,1,8
120,64,54468,1,2
120,288,55451,5,0
120,288,55697,2,2,B|120:200,1,75,8|0
120,213,56189,2,2,B|120:48,1,150,10|2
120,63,56927,1,4
224,64,57418,5,0
320,64,57910,1,8
408,112,58402,1,2
432,160,58648,1,2
432,208,58894,1,2
400,304,59386,1,0
296,320,59877,1,8
240,320,60123,1,2
184,320,60369,1,2
128,320,60615,1,2
72,320,60861,1,4
144,192,65287,6,2,B|368:192,1,150
344,192,66025,1,6
344,296,66517,2,2,B|224:296,1,75,2|4
369,192,73156,6,0,B|144:192,2,225,2|0|4
448,192,75000,5,0
448,192,75123,1,2
448,136,75369,1,4
304,72,76107,1,4
200,104,76599,5,8
112,48,77091,5,0
48,128,77582,1,2
48,232,78074,1,2
152,208,78566,1,8
256,192,79058,5,0
360,192,79550,1,0
464,192,80041,1,2
464,192,80287,1,2
464,192,80533,1,2
464,296,81025,5,2
408,296,81271,1,2
352,296,81517,1,2
296,296,81763,2,2,B|296:208,3,75,2|2|2|6
256,192,90861,5,4
408,144,91599,1,4
312,104,92091,1,0
256,88,92336,1,12
152,88,92828,6,0,B|312:88,1,150,2|10
288,192,93812,2,2,B|168:192,1,75
160,192,94304,1,2
152,296,94795,2,0,B|312:296,1,150,0|8
304,192,95779,2,2,B|168:192,1,75
176,192,96271,1,2
152,296,96763,6,2,B|16:296|16:56,1,300
224,64,98730,5,4
384,64,99468,1,4
384,168,99959,1,0
384,168,100205,1,4
488,168,100697,6,2,B|488:248,6,75,2|2|2|2|2|2|2
368,152,102664,6,4,B|344:72|280:72|224:104|240:160|272:192,2,225
264,184,104632,6,2,B|208:136,4,37.5
264,184,105615,2,2,B|328:248,2,75,2|2|2
256,80,106599,6,4,B|344:80,1,75,4|0
432,80,107336,2,4,B|432:155,1,75,4|0
432,155,108074,1,4
336,192,108566,5,2
280,192,108812,1,2
224,192,109058,1,2
168,192,109304,1,2
224,192,109550,1,2
280,192,109796,1,2
336,192,110041,1,6
256,192,110533,12,4,112009
248,184,112500,6,2,B|288:224,4,37.5
168,112,113484,5,4
32,192,114222,1,4
120,240,114714,1,2
168,264,114959,1,4
256,192,115451,12,4,117173
344,128,120615,5,0
408,128,120861,2,4,B|408:288,1,150
296,280,121845,1,0
296,280,122337,2,6,B|64:56,1,300,4|4
184,72,123812,1,0
304,128,124550,5,0
304,128,124796,2,4,B|229:128,1,75
176,128,125287,2,0,B|176:213,1,75
136,240,125779,2,6,B|360:16,1,300
440,80,127255,1,4
368,152,127746,1,4
344,304,128484,5,2
296,304,128730,1,2
248,304,128976,2,6,B|248:48,1,225
352,64,130205,5,4
456,64,130697,1,4
400,152,131189,1,4
400,256,131681,1,4
256,192,132419,6,6,B|144:192,1,75
168,80,133156,2,6,B|344:80,1,150
384,160,134140,2,6,B|368:352|104:352|81:147,1,450
256,192,136107,12,4,137582
256,192,141517,5,0
256,192,141763,1,0
256,192,142009,5,4
96,192,142746,1,4
96,88,143238,2,0,L|192:88,1,75,0|4
256,192,145943,12,0,147910
