osu file format v6

[General]
AudioFilename: The Lonely Island - Jizz In My Pants.mp3
AudioLeadIn: 0
PreviewTime: 10212
Countdown: 1
SampleSet: Soft
StackLeniency: 0.7
Mode: 0
LetterboxInBreaks: 1

[Editor]
DistanceSpacing: 0.800000011920929
BeatDivisor: 4
GridSize: 8

[Metadata]
Title:Jizz In My Pants
Artist:The Lonely Island
Creator:Kytoxid
Version:Insane
Source:
Tags:snl saturday night live

[Difficulty]
HPDrainRate:8
CircleSize:4
OverallDifficulty:8
SliderMultiplier:2
SliderTickRate:2

[Events]
//Background and Video events
Video,-25,"Jizz In My Pants.avi"
0,0,"JIMP.jpg"
//Break Periods
2,117373,119865
2,137782,140767
2,143684,145193
//Storyboard Layer 0 (Background)
//Storyboard Layer 1 (Fail)
//Storyboard Layer 2 (Pass)
//Storyboard Layer 3 (Foreground)
//Storyboard Sound Samples
//Background Colour Transformations
3,100,0,0,0

[TimingPoints]
4304,491.804243666476,4,2,0,100,1,0
120369,-100,4,1,0,55,0,1
138100,-100,4,1,0,55,0,0
145477,-100,4,2,0,0,0,0
149392,-100,4,2,0,29,0,0

[Colours]
Combo1 : 128,64,0
Combo2 : 128,0,0
Combo3 : 0,128,128
Combo4 : 0,128,64

[HitObjects]
256,192,4058,1,0
189,152,4304,2,2,B|174:90|248:96,1,100,2|0
384,120,5041,1,0
416,144,5164,1,2
424,184,5287,1,0
392,256,5533,1,0
328,304,5779,1,10
160,297,6271,5,2
120,280,6394,1,0
98,246,6517,1,0
70,170,6763,1,10
100,95,7008,1,0
70,169,7254,1,2
80,208,7377,1,0
98,246,7500,1,0
120,280,7623,2,0,L|176:304,1,50,0|8
316,277,8238,6,0,B|386:280|390:207,2,100,0|0|8
316,277,8976,2,0,B|328:205|429:229,2,100
289,307,9590,1,0
270,342,9713,1,8
256,192,10205,12,4,11189
256,192,11558,5,4
112,128,12172,5,2
112,168,12295,1,0
32,144,12541,2,0,L|32:88,1,50,0|8
80,32,12910,1,2
120,32,13033,1,0
160,32,13156,1,2
192,112,13402,1,0
160,192,13648,1,10
400,128,14017,5,0
400,128,14140,1,0
440,56,14385,1,2
456,88,14508,1,0
480,128,14631,1,10
440,192,14877,1,2
400,192,15000,1,0
360,192,15123,1,2
320,128,15369,1,0
360,56,15615,1,4
440,192,16107,5,0
400,128,16353,1,0
360,192,16599,1,10
400,256,16845,1,2
368,280,16967,1,0
336,304,17090,1,2
256,304,17336,1,0
176,304,17582,1,10
216,72,17951,5,0
175,72,18074,1,0
134,72,18197,1,0
152,164,18443,1,2
182,189,18566,1,8
112,240,18812,1,2
144,272,18935,1,2
176,304,19058,1,2
112,352,19304,1,0
48,304,19549,1,12
96,120,20041,6,2,B|200:120,1,100
196,120,20533,2,0,B|304:120,1,100,8|0
296,120,21025,2,2,B|400:120,1,100
396,120,21517,2,0,B|396:264,1,100,8|0
424,248,21886,5,0
400,280,22008,1,0
320,280,22254,1,2
240,280,22500,1,10
160,280,22746,1,0
160,200,22992,1,2
160,120,23238,1,0
160,120,23484,1,12
256,64,23853,5,0
256,64,23976,1,0
176,64,24222,1,2
256,64,24467,1,8
336,64,24713,1,2
256,64,24959,1,0
256,144,25205,1,2
256,64,25451,1,10
256,224,25943,6,0,B|312:224,3,50,0|0|0|0
256,224,26435,6,0,B|256:280,3,50,8|0|0|0
256,224,26926,6,8,B|168:128,2,100,0|0|8
256,192,27910,12,4,29386
256,192,29754,5,0
256,192,29877,1,2
264,152,30000,1,0
276,114,30123,1,0
335,60,30369,2,2,B|423:60,1,50,10|2
424,60,30615,1,0
424,146,30861,2,2,B|412:196,1,50
402,233,31107,1,0
336,280,31353,1,8
256,192,31722,5,0
256,192,31845,1,0
240,152,31967,1,0
224,112,32090,1,0
160,64,32336,2,2,B|100:64,1,50,10|2
66,64,32582,1,0
67,145,32828,2,2,B|87:202,1,50
97,228,33074,1,0
164,270,33320,1,8
256,192,33812,5,2
256,272,34058,1,0
334,258,34304,1,10
377,191,34549,1,0
368,152,34672,1,0
348,116,34795,1,2
328,80,34918,1,2
296,55,35041,1,2
256,40,35164,1,4
256,192,35779,12,4,37254
256,192,37746,5,0
256,112,37992,1,2
296,112,38115,1,0
336,112,38238,1,10
336,192,38484,1,0
312,224,38607,1,0
280,248,38730,1,2
248,272,38853,1,2
208,280,38976,1,0
168,275,39099,1,4
80,192,39468,5,8
136,112,39713,6,2,B|176:152,1,50
208,184,39959,2,0,B|264:240,1,50,0|2
280,192,40205,2,0,B|240:152,1,50,8|0
216,112,40451,2,0,B|160:56,1,50
192,24,40697,2,2,B|272:24,1,50
288,24,40943,2,0,B|288:112,1,50
288,120,41189,1,8
184,200,41558,5,0
144,200,41681,2,0,B|88:200,3,50
88,160,42172,2,0,B|144:160,3,50,8|0|0|0
136,120,42664,1,0
192,64,42910,1,2
272,64,43156,1,10
336,112,43402,5,4
272,64,43648,1,0
192,64,43894,1,4
136,120,44140,1,4
112,192,44386,1,0
136,264,44631,1,4
256,192,45123,5,8
256,72,45492,5,0
296,72,45615,1,2
328,88,45738,1,2
364,116,45861,1,2
409,181,46107,1,8
395,258,46353,1,2
376,296,46476,1,2
344,319,46599,1,2
264,321,46845,1,2
214,258,47090,1,10
256,72,47582,5,0
181,100,47828,1,2
149,124,47951,1,0
132,160,48074,1,10
135,239,48320,1,0
180,304,48566,1,0
240,352,48812,1,0
240,352,48935,1,2
240,352,49058,1,10
416,192,49549,6,2,B|416:136,1,50
392,112,49795,1,2
328,64,50041,2,2,B|312:112,2,50,10|2|2
256,24,50533,1,0
216,24,50656,1,0
184,48,50779,2,2,B|136:80,1,50
120,104,51025,1,10
80,192,51394,6,2,B|80:248,1,50
136,296,51763,1,0
136,296,51886,1,2
136,296,52009,1,10
208,328,52254,1,0
208,328,52377,1,2
208,328,52500,1,2
288,320,52746,1,0
328,304,52869,1,2
352,280,52992,1,8
440,184,53361,5,0
416,152,53484,1,2
384,120,53607,1,2
352,88,53730,1,0
320,72,53853,1,2
280,64,53976,1,10
200,64,54222,1,0
128,96,54468,1,2
88,160,54713,1,2
104,240,54959,1,10
280,192,55328,6,2,B|224:192,5,50,2|2|2|2|2|10
296,216,56189,2,2,B|272:280|192:216,1,100
216,168,56681,2,2,B|240:104|320:168,1,100,2|10
368,176,57172,5,6
448,192,57418,6,0,B|256:0|56:176,1,400,2|0
90,148,58648,1,0
90,148,58771,1,0
90,148,58894,1,8
88,224,59140,5,0
88,224,59263,1,0
88,224,59386,2,0,B|272:344,2,200,0|8|0
88,224,60615,1,2
88,224,60738,1,2
88,224,60861,1,10
256,192,61230,5,0
256,192,61353,1,2
256,192,61599,1,2
256,192,61722,1,0
256,72,62090,2,2,B|304:88,1,50,2|2
336,104,62336,2,2,B|376:144,1,50
400,168,62582,2,2,B|416:216,2,50,2|2|10
256,192,63074,5,2
256,192,63197,1,0
256,192,63320,1,2
256,272,63566,1,2
216,288,63689,1,0
176,272,63812,1,10
120,216,64058,5,0
120,136,64304,1,0
176,80,64550,1,2
216,64,64672,1,2
256,72,64795,1,12
256,192,65287,12,4,66763
200,240,67131,5,0
160,256,67254,1,2
120,248,67377,1,2
88,224,67500,1,0
64,192,67623,1,2
80,112,67869,1,0
80,112,67992,1,2
136,56,68238,1,10
216,48,68484,1,0
216,48,68730,1,4
296,48,68976,5,2
336,56,69099,1,0
368,80,69222,1,0
408,144,69468,1,2
416,184,69591,1,0
408,224,69713,1,8
368,288,69959,1,2
296,320,70205,1,0
216,312,70451,1,0
160,248,70697,1,4
256,192,71066,5,0
280,224,71189,1,0
312,240,71312,1,0
352,232,71435,1,0
376,200,71558,1,0
376,160,71681,1,8
328,104,71927,1,0
296,80,72050,1,0
256,72,72172,1,0
216,80,72295,1,0
184,104,72418,1,0
152,176,72664,1,8
256,192,73156,12,4,74632
64,304,75123,5,8
64,280,75246,2,2,B|64:104|336:104,2,350,2|2|2
88,280,77091,2,2,B|360:280|360:48,2,400,10|2|2
101,191,79304,5,0
120,112,79550,1,8
152,88,79673,1,0
192,72,79795,1,2
256,120,80041,1,0
320,72,80287,1,2
352,88,80410,1,2
384,112,80533,1,8
256,296,81025,5,2
176,192,81271,1,2
336,192,81517,1,2
256,296,81763,1,0
256,336,81886,1,0
296,328,82009,5,8
328,304,82132,1,8
384,248,82377,1,4
256,192,82746,5,0
256,192,82992,1,8
336,192,83238,1,0
336,112,83484,1,2
256,112,83730,1,0
176,112,83976,1,8
176,192,84222,1,2
176,192,84345,1,2
336,192,84836,5,0
376,192,84959,1,8
376,272,85205,1,0
336,272,85328,1,2
336,352,85574,1,2
296,336,85697,1,2
272,304,85820,1,2
256,272,85943,1,8
256,192,86189,1,2
256,192,86435,1,4
112,320,86927,6,2,B|40:248,1,100,10|2
104,200,87418,2,0,B|176:272,1,100
232,216,87910,2,2,B|144:128,1,100,10|2
161,145,88279,1,4
464,256,88894,6,2,B|384:336,1,100,10|2
336,272,89386,2,2,B|408:200,1,100,2|0
352,144,89877,2,2,B|264:232,1,100,10|2
281,215,90246,1,4
256,136,90492,5,0
256,136,90615,1,0
256,192,90861,12,4,92336
256,192,92828,5,2
232,160,92951,1,0
200,136,93074,1,0
168,112,93197,1,0
128,104,93320,1,10
64,152,93566,1,2
64,192,93689,1,0
64,232,93812,1,2
112,296,94058,1,0
184,320,94304,1,4
256,192,94795,5,2
280,160,94918,1,0
312,136,95041,1,0
344,112,95164,1,0
384,104,95287,1,10
448,152,95533,1,2
448,192,95656,1,0
448,232,95779,1,2
432,280,95902,1,0
368,304,96148,1,4
256,184,96640,6,2,B|256:88,1,50,2|2
256,232,97009,2,2,B|198:232,2,50,0|0|8
256,120,97500,2,0,B|312:120,5,50,0|0|0|0|0|0
256,192,98361,1,0
256,192,98484,1,0
256,192,98730,12,4,100205
256,192,100328,5,0
256,192,100451,1,2
257,272,100697,1,0
336,271,100943,1,0
336,190,101189,1,8
256,192,101435,2,2,B|208:144,6,50,2|2|2|2|2|2|6
256,192,102664,12,4,104140
336,120,104632,5,0
184,120,104877,1,0
184,272,105123,1,8
336,272,105369,1,0
400,56,105615,5,2
120,56,105861,1,0
120,328,106107,1,10
400,328,106353,1,0
256,192,106599,12,4,108074
256,192,108197,5,0
256,192,108320,1,0
336,192,108566,1,2
336,152,108689,1,0
336,112,108812,1,2
256,112,109058,1,8
176,112,109304,1,2
176,192,109550,1,0
176,272,109796,1,0
256,272,110041,1,10
256,192,110287,1,4
256,192,110533,12,4,112009
96,320,112377,5,0
72,288,112500,1,2
120,232,112746,1,2
144,264,112869,1,0
168,296,112992,1,8
216,232,113238,1,0
192,200,113361,1,0
232,200,113484,5,4
256,192,113607,12,4,114959
400,88,115328,5,0
368,64,115451,1,0
256,192,115697,12,4,117173
256,192,120615,5,0
256,144,120738,1,0
256,96,120861,1,8
152,96,121107,1,0
152,144,121230,1,0
152,192,121353,1,8
152,288,121599,1,0
200,288,121722,1,0
248,288,121845,1,12
416,192,122337,5,0
256,48,122582,1,0
88,192,122828,1,8
256,328,123074,1,0
256,192,123320,1,0
256,48,123566,1,0
256,192,123812,1,12
184,64,124550,6,2,B|80:64,1,100,0|4
328,64,125041,6,2,B|432:64,1,100,0|4
256,288,125533,6,2,B|256:188,1,100,0|4
256,192,126271,5,0
256,192,126517,1,0
448,192,126763,1,8
448,192,127009,1,0
256,192,127255,1,0
256,192,127500,1,0
64,192,127746,1,12
88,344,128484,6,2,B|200:192|136:120,1,200
377,112,129222,6,2,B|312:192|400:296,1,200
360,56,130205,5,0
160,56,130451,1,0
360,56,130697,1,8
160,56,130943,1,0
256,232,131189,1,4
256,232,131435,1,4
256,232,131681,1,12
256,192,132419,6,2,B|312:256|368:256|432:192|432:120|368:56|312:56|256:56|200:56|144:56|80:120|88:192|152:296|240:296,1,700,0|4
256,192,134632,5,4
256,192,135123,1,4
256,192,135615,1,4
256,192,136107,12,4,137582
152,192,141517,5,2
360,200,141763,1,2
256,192,142009,12,4,143484
256,192,145943,12,0,147910
256,192,149878,5,8
