osu file format v6

[General]
AudioFilename: The Lonely Island - Jizz In My Pants.mp3
AudioLeadIn: 0
PreviewTime: 10212
Countdown: 1
SampleSet: Soft
StackLeniency: 0.7
Mode: 0
LetterboxInBreaks: 1

[Editor]
DistanceSpacing: 0.800000011920929
BeatDivisor: 2
GridSize: 8

[Metadata]
Title:Jizz In My Pants
Artist:The Lonely Island
Creator:Kytoxid
Version:Easy
Source:
Tags:snl saturday night live

[Difficulty]
HPDrainRate:3
CircleSize:3
OverallDifficulty:3
SliderMultiplier:1
SliderTickRate:1

[Events]
//Background and Video events
Video,-25,"Jizz In My Pants.avi"
0,0,"JIMP.jpg"
//Break Periods
2,25659,34347
2,66971,74183
//Storyboard Layer 0 (Background)
//Storyboard Layer 1 (Fail)
//Storyboard Layer 2 (Pass)
//Storyboard Layer 3 (Foreground)
//Storyboard Sound Samples
//Background Colour Transformations
3,100,0,0,0

[TimingPoints]
4304,491.804243666476,4,2,0,100,1,0

[Colours]
Combo1 : 128,64,0
Combo2 : 128,0,0
Combo3 : 0,128,128
Combo4 : 0,128,64

[HitObjects]
256,192,4304,1,0
96,192,5287,1,2
256,192,6271,1,0
416,192,7254,1,2
256,192,8238,5,2
256,32,9222,1,2
256,192,10205,1,0
256,352,11189,1,4
256,192,12172,5,0
96,64,13156,1,0
96,224,14140,2,2,B|96:352|256:384,1,200
352,296,16107,2,2,B|352:168|192:136,1,200
136,24,18074,5,0
216,24,18566,1,2
296,24,19058,1,0
416,192,20041,5,0
416,192,20533,1,2
416,192,21025,1,2
256,192,22008,5,0
256,192,22500,1,2
256,192,22992,1,2
256,192,23484,1,2
96,192,24467,5,2
96,192,24959,1,2
96,192,25451,1,6
256,192,35779,12,4,37254
256,192,38238,5,8
256,192,39222,1,2
128,96,40205,5,8
240,208,41189,1,2
128,320,42172,5,8
288,352,43156,1,2
352,304,43648,5,2
384,232,44140,1,2
392,152,44631,1,4
256,64,45615,5,2
408,96,46599,1,0
416,256,47582,1,2
416,256,48566,1,0
256,192,49549,6,2,B|416:192,2,150,2|0|2
256,112,51517,6,0,B|96:112,2,150,2|0|2
336,112,53484,5,2
336,112,54468,1,2
176,112,55451,5,2
176,112,56435,1,2
256,192,57418,5,2
256,192,58402,1,2
256,320,59386,5,0
224,256,59877,1,0
257,190,60369,1,0
224,128,60861,1,6
256,320,62090,6,2,B|320:320,3,50,2|2|2|6
242,192,64058,2,2,B|192:192,3,50,2|2|2|6
256,192,65287,12,4,66763
36,148,75615,5,8
89,89,76107,1,2
159,51,76599,1,2
353,51,77582,5,8
423,89,78074,1,2
476,148,78566,1,2
480,320,79550,5,10
416,288,80041,1,2
352,320,80533,1,2
288,288,81025,5,2
224,320,81517,1,2
160,288,82009,1,2
96,320,82500,1,6
218,194,83976,5,2
296,192,84468,1,6
56,192,85943,5,2
136,192,86435,1,6
408,192,87910,5,2
344,144,88402,1,6
104,192,89877,5,2
168,144,90369,1,6
256,192,90861,12,4,92336
256,192,93320,5,8
190,145,93812,1,0
112,123,94304,1,2
256,192,95287,5,8
322,239,95779,1,0
400,261,96271,1,2
395,101,97255,5,10
256,192,98238,1,2
256,112,98730,6,0,B|128:112|192:-16|320:-16|384:112|320:144,1,300,0|4
256,272,102664,6,0,B|384:272|320:400|192:400|128:272|160:240,1,300,0|4
368,192,106599,6,0,B|368:64|496:128|496:256|368:320|336:288,1,300,0|4
160,192,110533,6,0,B|160:352|32:256|32:128|128:96|160:96,1,300,0|4
392,136,113484,6,0,B|264:-32|144:152,1,300,0|4
152,256,115697,6,0,B|280:424|400:240,1,300,0|4
