osu file format v7

[General]
AudioFilename: Justin Timberlake ft. Andy Sandberg - Mother Lover.mp3
AudioLeadIn: 0
PreviewTime: 66167
Countdown: 1
SampleSet: Soft
StackLeniency: 0.7
Mode: 0
LetterboxInBreaks: 1

[Editor]
Bookmarks: 22260,51529,66163,95432,110067,124701,139336,168605,183223
DistanceSpacing: 0.800000011920929
BeatDivisor: 4
GridSize: 8

[Metadata]
Title:Motherlover
Artist:The Lonely Island (Feat. Justin Timberlake)
Creator:eee
Version:eee/EEeeeasy
Source:
Tags:Larto Agent Spin Here collab EEeee mature explicit snl digital short Andy Samberg

[Difficulty]
HPDrainRate:3
CircleSize:3
OverallDifficulty:3
SliderMultiplier:0.999999999999999
SliderTickRate:2

[Events]
//Background and Video events
0,0,"mothers_day.jpg"
Video,2199,"MotherLover1234.avi"
//Break Periods
2,95642,97661
2,139527,152081
//Storyboard Layer 0 (Background)
//Storyboard Layer 1 (Fail)
//Storyboard Layer 2 (Pass)
//Storyboard Layer 3 (Foreground)
Sprite,Foreground,Centre,"eee.png",320,240 M,0,22271,,519,382 S,0,22271,,0.5520004 F,0,22271,23186,0,1 F,0,23186,51078,1 F,0,51078,51535,1,0 F,0,51535,65710,0 F,0,65710,66167,0,1 F,0,66167,94974,1 F,0,94974,95431,1,0 F,0,95431,109606,0,0.03599991 F,0,109606,110063,0.03599991,1 F,0,110063,124238,1 F,0,124238,124701,1,0.02400009 F,0,124701,138870,0.02400009,0 F,0,138870,139327,0,1 F,0,139327,168133,1 F,0,168133,168591,1,0
Sprite,Foreground,Centre,"EEeee.png",320,240 M,0,51078,,126,367 S,0,51078,,0.52 F,0,51078,51535,0,1 F,0,51535,65710,1 F,0,65710,66167,1,0 F,0,66167,94974,0,0.008752763 F,0,94974,95431,0.008752763,1 F,0,95431,109606,1 F,0,109606,110063,1,0 F,0,110063,124238,0 F,0,124238,124695,0,1 F,0,124695,138870,1 F,0,138870,139327,1,0 F,0,139327,168133,0 F,0,168133,168591,0,1 F,0,168591,182765,1 F,0,182765,183223,1,0
//Storyboard Sound Samples
//Background Colour Transformations
3,100,163,162,255

[TimingPoints]
22272,457.317073170732,4,2,1,50,1,0
35875,-100,4,2,1,65,0,0
66053,-100,4,2,1,80,0,0
66167,-100,4,2,1,80,0,1
95317,-100,4,2,1,50,0,1
95431,-100,4,2,1,50,0,0
122752,-100,4,2,1,21,0,0
124581,-100,4,2,1,80,0,0
124695,-100,4,2,1,80,0,1
139213,-200,4,2,1,30,0,0
139327,914.634146341463,4,2,1,30,1,0
143015,914.634146341463,4,2,1,30,1,0
146401,914.634146341463,4,2,1,30,1,0
149802,914.634146341463,4,2,1,30,1,0
152150,457.317073170732,4,2,1,30,1,0
153844,-100,4,2,1,80,0,0
153958,-100,4,2,1,80,0,1
166647,-100,4,2,1,40,0,1
168476,-100,4,2,1,80,0,0
168590,-100,4,2,1,80,0,1

[Colours]
Combo1 : 196,191,6
Combo2 : 27,162,235
Combo3 : 7,149,156
Combo4 : 203,108,22

[HitObjects]
256,64,22729,1,0
208,128,23186,6,0,B|328:128,1,99.9999999999999
368,184,24101,1,2
304,232,24558,1,0
224,232,25015,1,2
160,184,25473,1,2
256,40,26387,5,0
256,120,26845,1,0
256,200,27302,1,0
208,264,27759,6,0,B|256:288|312:264,3,99.9999999999999,0|2|0|2
336,112,30046,5,0
256,112,30503,1,2
176,112,30961,1,2
176,272,31875,5,0
256,272,32332,1,2
336,272,32790,1,2
408,128,33704,6,0,B|320:64,1,99.9999999999999,0|2
248,72,34619,1,2
168,88,35076,5,0
88,104,35534,1,0
96,184,35991,1,10
176,168,36448,1,2
256,304,37363,5,0
328,264,37820,1,8
392,216,38278,2,0,B|392:104,1,99.9999999999999
392,32,39192,1,2
320,72,39650,1,8
248,32,40107,1,0
112,112,41022,5,0
112,192,41479,1,8
112,272,41936,1,0
192,272,42393,6,0,B|304:272,1,99.9999999999999,2|2
376,272,43308,2,0,B|376:168,1,99.9999999999999,8|0
256,64,44680,5,0
256,144,45137,1,8
256,224,45595,1,0
176,224,46052,2,0,B|176:336,1,99.9999999999999,0|2
96,320,46967,2,0,B|96:208,1,99.9999999999999,8|0
136,64,48339,5,0
184,128,48796,1,8
256,176,49253,2,0,B|328:192|368:176,2,99.9999999999999
256,256,50625,1,8
256,336,51082,1,0
176,336,51540,6,4,B|128:336|128:336|128:296|80:296,2,99.9999999999999,4|4|8
256,336,52912,1,0
256,256,53369,1,0
256,176,53826,5,0
256,96,54284,2,0,B|256:32,2,50,8|0|0
336,96,55198,6,4,B|384:96|384:96|384:136|432:136,3,99.9999999999999,4|4|8|0
472,192,57028,1,0
472,272,57485,5,0
408,320,57942,2,0,C|328:320|328:320|288:216,1,200,8|0
216,256,59314,6,0,B|128:312|128:312|24:248,1,200
0,192,60686,5,0
80,192,61143,1,0
160,192,61601,1,8
240,192,62058,1,0
320,192,62515,6,0,B|392:256|392:256|488:176,1,200,0|8
472,112,63887,1,0
408,64,64345,2,0,B|336:40|336:40|296:48,1,99.9999999999999
232,72,65259,1,8
152,72,65717,1,0
152,152,66174,6,0,B|376:152,1,200,4|8
352,232,67546,6,0,B|152:232,1,200,0|2
80,272,68918,5,8
80,192,69375,1,0
80,112,69832,1,4
80,192,70290,1,0
168,112,70976,5,2
328,112,71890,2,0,B|392:136|392:288|304:336,1,250,2|2
240,328,73491,5,4
120,328,74177,1,0
40,240,74863,5,2
120,240,75320,1,2
200,240,75778,1,2
280,240,76235,6,0,B|280:32,1,200,8|4
360,40,77607,1,0
456,104,78293,5,2
392,152,78750,1,2
456,104,79207,2,0,B|503:153|436:290|336:294,1,250
272,320,80808,6,0,B|168:360|64:320,1,200,4|8
120,256,82180,6,0,B|144:272|208:272|232:248,2,99.9999999999999,0|2|0
168,192,83552,1,8
256,56,84467,5,4
336,56,84924,1,0
416,56,85381,1,8
416,136,85839,2,0,B|296:136,2,99.9999999999999,0|0|8
304,352,88125,5,4
240,304,88582,1,0
176,256,89040,1,8
112,208,89497,6,0,B|176:128,1,99.9999999999999
224,72,90412,1,8
224,72,90640,1,0
328,240,91784,5,4
328,320,92241,1,0
328,240,92698,1,0
168,240,93613,5,4
168,320,94070,1,0
168,240,94528,1,0
168,160,94985,5,0
168,160,95442,1,4
80,104,99101,6,0,B|136:72|184:112,1,99.9999999999999
168,184,100015,1,8
248,184,100473,1,0
248,104,100930,6,0,B|304:72|352:112,1,99.9999999999999
344,184,101845,2,0,B|400:216|448:176,2,99.9999999999999,0|0|0
336,264,103217,5,0
256,264,103674,1,8
176,264,104131,1,0
336,120,105046,5,0
256,120,105503,1,8
176,120,105961,1,0
104,216,106647,6,0,B|104:288,2,50
104,176,107332,2,0,B|104:112,2,50,8|0|0
184,192,108247,6,0,B|304:192,1,99.9999999999999
368,192,109162,2,0,B|480:192,1,99.9999999999999,8|0
464,272,110076,5,4
464,272,110534,1,4
320,328,111448,5,0
240,328,111906,1,2
160,328,112363,1,2
160,248,112820,2,0,B|160:136,1,99.9999999999999,8|0
80,144,113735,5,4
80,144,114192,1,4
224,88,115107,5,0
304,88,115564,1,2
384,88,116022,1,2
384,168,116479,2,0,B|384:280,1,99.9999999999999,8|0
224,280,117851,5,2
144,264,118308,1,10
208,208,118765,1,2
134,183,119223,2,0,B|153:127|219:114|266:132|284:185|284:185|408:192,1,300,2|0
296,320,121509,5,0
216,320,121967,1,8
256,248,122424,1,0
216,320,122881,6,0,B|144:248,1,99.9999999999999
64,248,123796,2,0,B|56:184|104:152,1,99.9999999999999
176,152,124711,6,0,B|256:96|256:96|352:160,1,200,4|8
341,233,126082,6,0,B|255:290|255:290|175:234,1,200
104,192,127454,5,8
24,192,127912,1,0
16,112,128369,2,0,B|136:112,1,99.9999999999999
256,64,129512,6,0,B|256:176,1,99.9999999999999,2|2
328,128,130427,2,0,B|392:152|392:304|304:352,1,250,2|2
240,344,132028,5,4
160,344,132485,2,0,B|104:352|48:320,1,99.9999999999999,0|8
24,256,133400,5,0
16,176,133857,1,0
48,104,134314,1,0
120,72,134772,6,0,B|168:112|168:112|200:48|200:48|264:88,1,200,8|0
256,160,136143,1,0
256,240,136601,6,0,B|256:352,1,99.9999999999999,8|0
256,192,137515,12,0,139327
256,192,153521,5,4
256,272,153979,6,0,B|360:312|464:272,1,200,4|8
408,208,155351,6,0,B|384:224|320:224|296:200,2,99.9999999999999,0|2|0
360,144,156723,1,8
256,56,157637,5,4
176,56,158095,1,0
96,56,158552,1,8
96,136,159009,2,0,B|216:136,2,99.9999999999999,0|2|10
208,352,161296,5,4
272,304,161753,1,0
336,256,162210,1,8
400,208,162668,6,0,B|336:128,1,99.9999999999999
288,72,163582,1,8
288,72,163811,1,0
184,240,164954,5,4
184,320,165412,1,0
184,240,165869,1,0
32,192,166784,5,4
32,272,167241,1,0
32,192,167698,1,0
168,64,168613,5,4
256,56,169070,1,0
344,64,169528,1,8
344,152,169985,5,0
256,160,170442,1,0
168,152,170899,1,0
256,160,171357,1,8
384,288,172271,6,0,B|256:376|256:376|120:296,1,300,4|0
208,256,174101,2,0,B|256:216|320:272,1,99.9999999999999,0|8
168,136,175473,5,8
208,56,175930,2,0,B|256:16|320:72,1,99.9999999999999,4|0
344,136,176845,1,8
256,160,177302,5,0
184,216,177759,2,0,B|184:288|184:288|256:312|256:312|328:288|328:288|328:200,1,300,0|8
256,160,179589,5,4
256,72,180046,1,0
168,56,180503,1,8
184,232,181418,6,0,B|184:304|184:304|256:328|256:328|328:304|328:304|328:216,1,300,4|8
256,160,183247,5,4
