osu file format v13

[General]
AudioFilename: Nippontradamus.mp3
AudioLeadIn: 0
PreviewTime: 3450
Countdown: 1
SampleSet: Soft
StackLeniency: 0.7
Mode: 0
LetterboxInBreaks: 1
WidescreenStoryboard: 0

[Editor]
Bookmarks: 12200
DistanceSpacing: 1.5
BeatDivisor: 3
GridSize: 32
TimelineZoom: 2.5

[Metadata]
Title:Nippontradamus
TitleUnicode:Nippontradamus
Artist:The Living Tombstone
ArtistUnicode:The Living Tombstone
Creator:Everest Hope
Version:Terror
Source:
Tags:MomoKuro-tei Ichimon Nippon Egao Hyakkei
BeatmapID:451612
BeatmapSetID:183949

[Difficulty]
HPDrainRate:6
CircleSize:4
OverallDifficulty:8.5
ApproachRate:10
SliderMultiplier:2.7
SliderTickRate:1

[Events]
//Background and Video events
0,0,"bg2betch.jpg",0,0
//Break Periods
//Storyboard Layer 0 (Background)
//Storyboard Layer 1 (Fail)
//Storyboard Layer 2 (Pass)
//Storyboard Layer 3 (Foreground)
//Storyboard Sound Samples
//Background Colour Transformations
3,100,0,0,0

[TimingPoints]
0,300,4,1,0,100,1,0
0,-100,4,2,0,100,0,0
12000,-100,4,1,1,100,0,0
14100,-66.6666666666667,4,1,1,100,0,0
14400,-100,4,1,1,100,0,0
14700,-133.333333333333,4,1,1,100,0,0
15000,-100,4,2,0,100,0,0
19200,-100,4,2,1,100,0,0
21600,-100,4,1,1,100,0,0
23700,-66.6666666666667,4,1,1,100,0,0
24000,-100,4,2,0,100,0,0
31200,-100,4,1,1,100,0,0
33300,-66.6666666666667,4,1,1,100,0,0
33600,-100,4,2,1,100,0,0
38700,-100,4,1,1,100,0,0

[Colours]
Combo1 : 255,60,255
Combo2 : 255,89,172
Combo3 : 255,166,210
Combo4 : 255,128,255

[HitObjects]
256,192,0,12,0,3600,0:0:0:0:
291,324,4800,6,0,P|244:303|215:283,2,67.5,4|0|0,0:0|0:0|0:0,0:0:0:0:
362,207,5100,2,0,P|394:200|426:188,2,67.5,2|0|0,0:0|0:0|0:0,0:0:0:0:
258,119,5400,5,4,0:0:0:0:
190,53,5475,1,0,0:0:0:0:
95,59,5550,1,0,0:0:0:0:
57,145,5625,1,0,0:0:0:0:
93,231,5700,6,0,P|99:282|94:307,1,67.5,4|0,0:0|0:0,0:0:0:0:
193,362,5850,2,0,P|195:310|205:286,1,67.5,0|0,0:0|0:0,0:0:0:0:
275,237,6000,1,0,0:0:0:0:
362,271,6075,1,0,0:0:0:0:
450,237,6150,1,0,0:0:0:0:
468,144,6225,1,0,0:0:0:0:
430,57,6300,6,0,P|391:36|361:35,1,67.5,4|0,0:0|0:0,0:0:0:0:
280,69,6450,2,0,P|233:80|131:54,1,135,0|0,0:0|0:0,0:0:0:0:
76,124,6675,5,0,0:0:0:0:
38,210,6750,1,4,0:0:0:0:
73,297,6825,1,0,0:0:0:0:
157,340,6900,2,0,P|200:341|243:357,1,67.5,0|0,0:0|0:0,0:0:0:0:
344,274,7050,2,0,P|301:280|256:272,1,67.5,0|0,0:0|0:0,0:0:0:0:
405,356,7200,5,4,0:0:0:0:
431,168,7350,1,0,0:0:0:0:
244,196,7500,1,2,0:0:0:0:
363,249,7650,1,0,0:0:0:0:
406,65,7800,5,4,0:0:0:0:
317,32,7875,1,0,0:0:0:0:
228,64,7950,1,0,0:0:0:0:
170,138,8025,1,0,0:0:0:0:
76,123,8100,2,0,P|54:159|50:197,1,67.5,4|0,0:0|0:0,0:0:0:0:
160,265,8250,2,0,P|152:297|133:325,1,67.5,0|0,0:0|0:0,0:0:0:0:
152,162,8400,2,0,P|228:165|272:217,1,135,0|0,0:0|0:0,0:0:0:0:
292,302,8625,1,0,0:0:0:0:
357,229,8700,6,0,L|357:135,1,67.5,4|0,0:0|0:0,0:0:0:0:
428,26,8850,2,0,L|428:120,1,67.5,0|0,0:0|0:0,0:0:0:0:
239,122,9000,6,0,P|195:141|149:145,1,67.5,0|0,0:0|0:0,0:0:0:0:
85,116,9150,1,4,0:0:0:0:
23,187,9225,1,0,0:0:0:0:
52,276,9300,2,0,P|92:321|177:340,1,135,0|0,0:0|0:0,0:0:0:0:
349,314,9600,6,0,P|396:317|429:328,1,67.5,4|0,0:0|0:0,0:0:0:0:
465,242,9750,2,0,P|456:180|474:111,1,135,0|2,0:0|0:0,0:0:0:0:
292,162,10050,1,0,0:0:0:0:
121,79,10200,6,0,L|192:97,1,67.5,4|0,0:0|0:0,0:0:0:0:
82,171,10350,2,0,L|11:189,1,67.5,0|0,0:0|0:0,0:0:0:0:
164,238,10500,2,0,P|190:271|293:300,1,135,4|0,0:0|0:0,0:0:0:0:
459,349,10800,5,0,0:0:0:0:
447,77,11100,2,0,P|441:112|446:159,2,67.5,4|0|0,0:0|0:0|0:0,0:0:0:0:
258,60,11400,2,0,P|199:86|118:84,1,135,0|4,0:0|0:0,0:0:0:0:
57,262,11700,5,0,0:0:0:0:
114,186,11775,1,0,0:0:0:0:
207,201,11850,1,0,0:0:0:0:
216,294,11925,1,0,0:0:0:0:
292,238,12000,2,0,P|356:222|441:232,1,135,8|0,0:0|0:0,0:0:0:0:
343,56,12300,6,0,P|328:92|343:208,1,135,0|8,0:0|0:0,0:0:0:0:
177,363,12600,2,0,P|198:330|203:213,1,135,0|0,0:0|0:0,0:0:0:0:
73,87,12900,2,0,P|64:125|99:236,1,135,8|0,0:0|0:0,0:0:0:0:
225,90,13200,5,0,0:0:0:0:
286,268,13350,1,8,0:0:0:0:
268,174,13500,1,0,0:0:0:0:
350,343,13650,1,0,0:0:0:0:
408,163,13800,5,8,0:0:0:0:
350,343,13950,1,0,0:0:0:0:
453,73,14100,2,0,P|388:46|36:96,1,405.000015449524,4|4,0:0|0:0,0:0:0:0:
30,175,14475,1,0,0:0:0:0:
57,272,14550,1,4,0:0:0:0:
156,292,14625,1,0,0:0:0:0:
244,236,14700,2,0,P|278:196|288:136,1,101.250003862381,0|0,0:0|0:0,0:0:0:0:
288,314,15000,6,0,P|335:291|429:293,2,135,2|0|4,0:0|0:0|0:0,0:0:0:0:
444,164,15600,5,0,0:0:0:0:
260,208,15750,1,0,0:0:0:0:
290,21,15900,1,4,0:0:0:0:
339,122,16050,1,0,0:0:0:0:
170,36,16200,5,0,0:0:0:0:
142,126,16275,1,0,0:0:0:0:
64,180,16350,1,4,0:0:0:0:
38,270,16425,1,0,0:0:0:0:
19,362,16500,2,0,P|68:374|155:360,1,135,0|0,0:0|0:0,0:0:0:0:
337,325,16800,6,0,P|368:329|412:348,2,67.5,4|0|0,0:0|0:0|0:0,0:0:0:0:
329,136,17100,2,0,P|360:61|406:23,2,135,2|0|4,0:0|0:0|0:0,0:0:0:0:
451,279,17550,1,0,0:0:0:0:
219,189,17700,6,0,P|199:215|158:238,1,67.5,0|0,0:0|0:0,0:0:0:0:
28,194,17850,2,0,P|58:181|105:182,1,67.5,0|0,0:0|0:0,0:0:0:0:
76,272,18000,1,6,0:0:0:0:
400,77,18300,5,12,0:0:0:0:
142,353,18600,6,0,P|198:357|360:206,1,270,6|12,0:0|0:0,0:0:0:0:
286,54,19050,1,8,0:0:0:0:
120,59,19200,6,0,P|77:111|66:180,1,135,0|8,0:0|0:0,0:0:0:0:
189,320,19500,2,0,P|200:253|175:188,1,135,0|0,0:0|0:0,0:0:0:0:
283,34,19800,1,0,0:0:0:0:
363,205,19950,5,0,0:0:0:0:
404,289,20025,1,0,0:0:0:0:
476,228,20100,2,0,P|495:169|479:89,1,135,0|0,0:0|0:0,0:0:0:0:
309,21,20400,6,0,L|156:42,1,135,0|0,0:0|0:0,0:0:0:0:
55,185,20700,2,0,P|25:140|21:122,2,67.5,0|0|0,0:0|0:0|0:0,0:0:0:0:
135,355,21000,2,0,L|206:340,1,67.5,0|0,0:0|0:0,0:0:0:0:
272,276,21150,5,0,0:0:0:0:
362,303,21225,1,0,0:0:0:0:
438,246,21300,2,0,P|470:193|462:109,1,135,8|8,0:0|0:0,0:0:0:0:
282,163,21600,5,8,0:0:0:0:
417,30,21750,1,0,0:0:0:0:
238,0,21900,1,0,0:0:0:0:
300,188,22050,1,8,0:0:0:0:
211,13,22200,2,0,L|76:31,1,135,0|0,0:0|0:0,0:0:0:0:
46,218,22500,6,0,P|41:158|47:139,2,67.5,8|0|0,0:0|0:0|0:0,0:0:0:0:
183,348,22800,2,0,P|259:333|329:343,1,135,0|8,0:0|0:0,0:0:0:0:
340,152,23100,5,0,0:0:0:0:
409,266,23250,2,0,P|442:262|473:249,2,67.5,0|0|8,0:0|0:0|0:0,0:0:0:0:
184,348,23550,1,0,0:0:0:0:
64,78,23700,2,0,P|257:26|453:73,1,405.000015449524,4|4,0:0|0:0,0:0:0:0:
455,168,24075,5,0,0:0:0:0:
437,260,24150,1,0,0:0:0:0:
359,314,24225,1,0,0:0:0:0:
265,300,24300,2,0,P|228:295|190:278,1,67.5,2|0,0:0|0:0,0:0:0:0:
30,323,24450,2,0,P|67:328|105:345,1,67.5,0|0,0:0|0:0,0:0:0:0:
82,245,24600,5,4,0:0:0:0:
31,165,24675,1,0,0:0:0:0:
80,84,24750,1,0,0:0:0:0:
174,80,24825,1,0,0:0:0:0:
244,194,24900,6,0,P|221:189|176:161,1,67.5,4|0,0:0|0:0,0:0:0:0:
312,128,25050,2,0,P|335:133|380:161,1,67.5,0|0,0:0|0:0,0:0:0:0:
434,31,25200,6,0,P|395:38|289:31,1,135,0|0,0:0|0:0,0:0:0:0:
179,335,25500,2,0,P|172:290|175:266,1,67.5,4|0,0:0|0:0,0:0:0:0:
423,294,25650,2,0,P|430:339|427:363,1,67.5,0|0,0:0|0:0,0:0:0:0:
338,324,25800,2,0,P|327:262|356:175,1,135,0|4,0:0|0:0,0:0:0:0:
183,94,26100,6,0,P|146:62|133:46,2,67.5,0|0|0,0:0|0:0|0:0,0:0:0:0:
190,282,26400,2,0,P|180:330|173:349,2,67.5,4|0|0,0:0|0:0|0:0,0:0:0:0:
347,176,26700,2,0,P|393:159|413:156,2,67.5,2|0|0,0:0|0:0|0:0,0:0:0:0:
344,262,27000,5,4,0:0:0:0:
261,216,27075,1,0,0:0:0:0:
167,204,27150,1,0,0:0:0:0:
94,143,27225,1,0,0:0:0:0:
54,228,27300,2,0,P|55:289|78:365,1,135,4|0,0:0|0:0,0:0:0:0:
167,338,27525,6,0,L|233:348,1,67.5,0|0,0:0|0:0,0:0:0:0:
322,315,27675,1,0,0:0:0:0:
416,308,27750,1,0,0:0:0:0:
480,238,27825,1,0,0:0:0:0:
464,144,27900,6,0,P|448:107|422:86,1,67.5,4|0,0:0|0:0,0:0:0:0:
335,65,28050,2,0,P|302:59|269:68,1,67.5,0|0,0:0|0:0,0:0:0:0:
181,102,28200,2,0,P|156:134|151:167,1,67.5,0|0,0:0|0:0,0:0:0:0:
57,157,28350,1,4,0:0:0:0:
25,246,28425,1,0,0:0:0:0:
39,337,28500,2,0,P|104:290|107:225,1,135,0|0,0:0|0:0,0:0:0:0:
256,122,28800,6,0,P|243:174|246:200,1,67.5,4|0,0:0|0:0,0:0:0:0:
319,309,28950,2,0,P|340:260|342:233,1,67.5,0|0,0:0|0:0,0:0:0:0:
425,201,29100,1,2,0:0:0:0:
357,135,29175,1,0,0:0:0:0:
446,106,29250,1,0,0:0:0:0:
432,294,29400,6,0,P|390:326|292:340,1,135,4|0,0:0|0:0,0:0:0:0:
122,324,29700,2,0,L|152:183,2,135,4|0|0,0:0|0:0|0:0,0:0:0:0:
33,197,30300,6,0,L|25:123,2,67.5,4|0|0,0:0|0:0|0:0,0:0:0:0:
144,44,30600,1,0,0:0:0:0:
258,194,30750,1,4,0:0:0:0:
346,27,30900,2,8,P|379:55|481:71,1,135,0|0,0:0|0:0,0:0:0:0:
416,320,31200,5,8,0:0:0:0:
256,352,31350,1,0,0:0:0:0:
96,320,31500,1,0,0:0:0:0:
256,256,31650,1,8,0:0:0:0:
416,224,31800,5,0,0:0:0:0:
256,160,31950,1,0,0:0:0:0:
96,224,32100,1,8,0:0:0:0:
256,64,32250,5,0,0:0:0:0:
416,128,32400,1,8,0:0:0:0:
96,128,32550,1,0,0:0:0:0:
416,32,32700,1,0,0:0:0:0:
96,32,32850,1,8,0:0:0:0:
256,320,33000,5,0,0:0:0:0:
256,192,33150,1,0,0:0:0:0:
449,68,33300,2,0,P|254:21|60:73,1,405.000015449524,8|14,0:0|0:0,0:0:0:0:
132,170,33675,1,0,0:0:0:0:
86,252,33750,1,0,0:0:0:0:
121,339,33825,1,0,0:0:0:0:
215,330,33900,2,0,P|265:320|358:343,1,135,10|0,0:0|0:0,0:0:0:0:
343,146,34200,5,10,0:0:0:0:
416,205,34275,1,0,0:0:0:0:
448,293,34350,1,0,0:0:0:0:
433,104,34500,1,10,0:0:0:0:
57,64,34800,5,10,0:0:0:0:
143,101,34875,1,0,0:0:0:0:
231,68,34950,1,0,0:0:0:0:
57,155,35100,1,10,0:0:0:0:
347,52,35250,1,0,0:0:0:0:
206,178,35400,5,10,0:0:0:0:
60,298,35550,1,0,0:0:0:0:
153,284,35625,1,0,0:0:0:0:
244,306,35700,6,0,P|305:305|396:333,1,135,10|0,0:0|0:0,0:0:0:0:
404,135,36000,2,0,P|393:185|397:217,1,67.5,10|0,0:0|0:0,0:0:0:0:
457,323,36150,2,0,P|468:273|464:241,1,67.5,0|0,0:0|0:0,0:0:0:0:
347,52,36300,2,0,P|295:67|197:67,1,135,10|0,0:0|0:0,0:0:0:0:
94,215,36600,5,10,0:0:0:0:
82,26,36750,1,0,0:0:0:0:
56,127,36900,1,10,0:0:0:0:
225,310,37050,1,0,0:0:0:0:
298,240,37125,5,0,0:0:0:0:
399,245,37200,2,0,B|428:197|412:161|412:161|444:149|444:149|421:109|442:51,1,202.5,10|0,0:0|0:0,0:0:0:0:
340,109,37500,2,0,P|290:78|154:142,1,202.5,10|0,0:0|0:0,0:0:0:0:
259,160,37800,2,0,B|273:197|250:237|250:237|282:249|282:249|266:285|295:333,1,202.5,10|0,0:0|0:0,0:0:0:0:
192,326,38100,1,10,0:0:0:0:
408,297,38400,5,4,0:0:0:0:
326,58,38600,5,0,0:0:0:0:
200,44,38700,1,8,0:0:0:0:
200,340,38900,5,0,0:0:0:0:
326,326,39000,1,8,0:0:0:0:
32,193,39200,5,0,0:0:0:0:
143,134,39300,1,8,0:0:0:0:
256,192,39375,1,0,0:0:0:0:
368,134,39500,1,0,0:0:0:0:
478,194,39600,1,8,0:0:0:0:
256,64,39800,5,8,0:0:0:0:
256,192,39900,1,0,0:0:0:0:
256,320,40100,5,8,0:0:0:0:
256,192,40200,1,0,0:0:0:0:
256,192,40400,12,12,42000,0:0:0:0:
211,293,42600,37,4,3:3:0:0:
308,321,42675,5,0,3:3:0:0:
282,223,42750,5,0,3:3:0:0:
