osu file format v13

[General]
AudioFilename: Nippontradamus.mp3
AudioLeadIn: 0
PreviewTime: 3450
Countdown: 0
SampleSet: Normal
StackLeniency: 0.7
Mode: 1
LetterboxInBreaks: 0
WidescreenStoryboard: 1

[Editor]
DistanceSpacing: 1.4
BeatDivisor: 4
GridSize: 32
TimelineZoom: 2.3

[Metadata]
Title:Nippontradamus
TitleUnicode:Nippontradamus
Artist:The Living Tombstone
ArtistUnicode:The Living Tombstone
Creator:Everest Hope
Version:Oni
Source:
Tags:MomoKuro-tei Ichimon Nippon Egao Hyakkei
BeatmapID:440549
BeatmapSetID:183949

[Difficulty]
HPDrainRate:5
CircleSize:5
OverallDifficulty:6
ApproachRate:6
SliderMultiplier:1.4
SliderTickRate:1

[Events]
//Background and Video events
0,0,"bg2betch.jpg",0,0
//Break Periods
//Storyboard Layer 0 (Background)
//Storyboard Layer 1 (Fail)
//Storyboard Layer 2 (Pass)
//Storyboard Layer 3 (Foreground)
//Storyboard Sound Samples
//Background Colour Transformations
3,100,0,0,0

[TimingPoints]
0,300,4,1,0,100,1,0
0,-100,4,1,0,100,0,0

[Colours]
Combo1 : 17,216,17
Combo2 : 255,0,128

[HitObjects]
256,192,0,5,0,0:0:0:0:
256,192,300,1,0,0:0:0:0:
256,192,600,1,0,0:0:0:0:
256,192,750,1,8,0:0:0:0:
256,192,900,1,0,0:0:0:0:
256,192,1050,1,8,0:0:0:0:
256,192,1200,1,0,0:0:0:0:
256,192,1350,1,8,0:0:0:0:
256,192,1500,1,0,0:0:0:0:
256,192,1575,1,0,0:0:0:0:
256,192,1650,1,8,0:0:0:0:
256,192,1800,1,0,0:0:0:0:
256,192,1875,1,0,0:0:0:0:
256,192,1950,1,8,0:0:0:0:
256,192,2100,1,0,0:0:0:0:
256,192,2250,1,8,0:0:0:0:
256,192,2400,1,0,0:0:0:0:
256,192,2475,1,0,0:0:0:0:
256,192,2550,1,8,0:0:0:0:
256,192,2625,1,0,0:0:0:0:
256,192,2700,1,8,0:0:0:0:
256,192,2775,1,0,0:0:0:0:
256,192,2850,1,8,0:0:0:0:
256,192,2925,1,0,0:0:0:0:
256,192,3000,1,8,0:0:0:0:
256,192,3075,1,0,0:0:0:0:
256,192,3150,1,8,0:0:0:0:
256,192,3225,1,0,0:0:0:0:
256,192,3300,1,8,0:0:0:0:
256,192,3375,1,0,0:0:0:0:
256,192,3450,1,8,0:0:0:0:
256,192,3525,1,8,0:0:0:0:
256,192,3600,1,4,0:0:0:0:
256,192,4800,5,0,0:0:0:0:
256,192,4875,1,0,0:0:0:0:
256,192,4950,1,8,0:0:0:0:
256,192,5100,1,0,0:0:0:0:
256,192,5175,1,0,0:0:0:0:
256,192,5250,1,8,0:0:0:0:
256,192,5400,1,8,0:0:0:0:
256,192,5475,1,8,0:0:0:0:
256,192,5550,1,0,0:0:0:0:
256,192,5625,1,0,0:0:0:0:
256,192,5700,1,8,0:0:0:0:
256,192,5850,1,8,0:0:0:0:
256,192,6000,1,0,0:0:0:0:
256,192,6075,1,0,0:0:0:0:
256,192,6150,1,8,0:0:0:0:
256,192,6300,1,0,0:0:0:0:
256,192,6375,1,0,0:0:0:0:
256,192,6450,1,8,0:0:0:0:
256,192,6600,1,8,0:0:0:0:
256,192,6675,1,8,0:0:0:0:
256,192,6750,1,0,0:0:0:0:
256,192,6825,1,0,0:0:0:0:
256,192,6900,1,8,0:0:0:0:
256,192,7050,1,8,0:0:0:0:
256,192,7200,1,0,0:0:0:0:
256,192,7350,1,8,0:0:0:0:
256,192,7500,1,0,0:0:0:0:
256,192,7575,1,0,0:0:0:0:
256,192,7650,1,8,0:0:0:0:
256,192,7800,1,0,0:0:0:0:
256,192,7875,1,0,0:0:0:0:
256,192,7950,1,0,0:0:0:0:
256,192,8100,1,8,0:0:0:0:
256,192,8250,1,0,0:0:0:0:
256,192,8400,1,8,0:0:0:0:
256,192,8475,1,8,0:0:0:0:
256,192,8550,1,0,0:0:0:0:
256,192,8625,1,0,0:0:0:0:
256,192,8700,1,8,0:0:0:0:
256,192,8850,1,0,0:0:0:0:
256,192,9000,1,0,0:0:0:0:
256,192,9075,1,0,0:0:0:0:
256,192,9150,1,8,0:0:0:0:
256,192,9300,1,8,0:0:0:0:
256,192,9375,1,8,0:0:0:0:
256,192,9450,1,0,0:0:0:0:
256,192,9600,1,0,0:0:0:0:
256,192,9675,1,0,0:0:0:0:
256,192,9750,1,8,0:0:0:0:
256,192,9900,1,0,0:0:0:0:
256,192,9975,1,0,0:0:0:0:
256,192,10050,1,0,0:0:0:0:
256,192,10125,1,0,0:0:0:0:
256,192,10200,1,8,0:0:0:0:
256,192,10350,1,0,0:0:0:0:
256,192,10500,1,8,0:0:0:0:
256,192,10650,1,0,0:0:0:0:
256,192,10800,1,0,0:0:0:0:
256,192,10875,1,0,0:0:0:0:
256,192,10950,1,0,0:0:0:0:
256,192,11100,1,8,0:0:0:0:
256,192,11175,1,8,0:0:0:0:
256,192,11250,1,0,0:0:0:0:
256,192,11400,1,0,0:0:0:0:
256,192,11550,1,8,0:0:0:0:
256,192,11700,1,0,0:0:0:0:
256,192,11775,1,0,0:0:0:0:
256,192,11850,1,8,0:0:0:0:
256,192,12000,1,0,0:0:0:0:
256,192,12075,1,8,0:0:0:0:
256,192,12150,1,8,0:0:0:0:
256,192,12300,1,8,0:0:0:0:
256,192,12450,1,8,0:0:0:0:
256,192,12600,1,0,0:0:0:0:
256,192,12675,1,8,0:0:0:0:
256,192,12750,1,8,0:0:0:0:
256,192,12825,1,0,0:0:0:0:
256,192,12900,1,8,0:0:0:0:
256,192,13050,1,8,0:0:0:0:
256,192,13200,1,0,0:0:0:0:
256,192,13350,1,8,0:0:0:0:
252,197,13500,1,8,0:0:0:0:
252,197,13650,1,0,0:0:0:0:
252,197,13725,1,8,0:0:0:0:
252,197,13800,1,0,0:0:0:0:
252,197,13875,1,8,0:0:0:0:
252,197,13950,1,0,0:0:0:0:
252,197,14025,1,8,0:0:0:0:
252,197,14100,1,4,0:0:0:0:
256,192,14400,1,0,0:0:0:0:
256,192,14550,1,8,0:0:0:0:
256,192,14700,1,0,0:0:0:0:
256,192,14775,1,0,0:0:0:0:
256,192,14850,1,0,0:0:0:0:
256,192,14925,1,0,0:0:0:0:
256,192,15000,1,8,0:0:0:0:
256,192,15150,1,0,0:0:0:0:
256,192,15300,1,0,0:0:0:0:
256,192,15375,1,0,0:0:0:0:
256,192,15450,1,8,0:0:0:0:
256,192,15600,1,0,0:0:0:0:
256,192,15750,1,8,0:0:0:0:
256,192,15900,1,0,0:0:0:0:
256,192,15975,1,0,0:0:0:0:
256,192,16050,1,0,0:0:0:0:
256,192,16200,1,8,0:0:0:0:
256,192,16350,1,8,0:0:0:0:
256,192,16425,1,8,0:0:0:0:
256,192,16500,1,8,0:0:0:0:
256,192,16650,1,8,0:0:0:0:
256,192,16800,1,8,0:0:0:0:
256,192,16875,1,8,0:0:0:0:
256,192,16950,1,8,0:0:0:0:
256,192,17100,1,8,0:0:0:0:
256,192,17175,1,0,0:0:0:0:
256,192,17250,1,8,0:0:0:0:
256,192,17400,1,0,0:0:0:0:
256,192,17475,1,0,0:0:0:0:
256,192,17550,1,8,0:0:0:0:
256,192,17700,1,0,0:0:0:0:
256,192,17850,1,8,0:0:0:0:
256,192,18000,1,8,0:0:0:0:
256,192,18075,1,8,0:0:0:0:
256,192,18150,1,8,0:0:0:0:
256,192,18300,1,8,0:0:0:0:
256,192,18375,1,8,0:0:0:0:
256,192,18450,1,8,0:0:0:0:
256,192,18600,1,8,0:0:0:0:
256,192,18675,1,8,0:0:0:0:
256,192,18750,1,8,0:0:0:0:
256,192,18900,1,8,0:0:0:0:
256,192,18975,1,8,0:0:0:0:
256,192,19050,1,8,0:0:0:0:
256,192,19125,1,0,0:0:0:0:
256,192,19200,1,8,0:0:0:0:
256,192,19350,1,0,0:0:0:0:
256,192,19500,1,0,0:0:0:0:
256,192,19650,1,8,0:0:0:0:
256,192,19800,1,0,0:0:0:0:
256,192,19875,1,0,0:0:0:0:
256,192,19950,1,8,0:0:0:0:
256,192,20100,1,8,0:0:0:0:
256,192,20250,1,0,0:0:0:0:
256,192,20400,1,8,0:0:0:0:
256,192,20550,1,0,0:0:0:0:
256,192,20700,1,0,0:0:0:0:
256,192,20775,1,0,0:0:0:0:
256,192,20850,1,0,0:0:0:0:
256,192,21000,1,0,0:0:0:0:
256,192,21075,1,8,0:0:0:0:
256,192,21150,1,0,0:0:0:0:
256,192,21300,1,8,0:0:0:0:
256,192,21450,1,0,0:0:0:0:
256,192,21600,1,8,0:0:0:0:
256,192,21750,1,0,0:0:0:0:
256,192,21900,1,0,0:0:0:0:
256,192,22050,1,8,0:0:0:0:
256,192,22200,1,0,0:0:0:0:
256,192,22275,1,0,0:0:0:0:
256,192,22350,1,8,0:0:0:0:
256,192,22500,1,8,0:0:0:0:
256,192,22650,1,0,0:0:0:0:
256,192,22800,1,0,0:0:0:0:
256,192,22875,1,0,0:0:0:0:
256,192,22950,1,8,0:0:0:0:
256,192,23100,1,0,0:0:0:0:
256,192,23175,1,0,0:0:0:0:
256,192,23250,1,8,0:0:0:0:
256,192,23400,1,0,0:0:0:0:
256,192,23475,1,0,0:0:0:0:
256,192,23550,1,8,0:0:0:0:
256,192,23625,1,8,0:0:0:0:
256,192,23700,1,8,0:0:0:0:
256,192,23850,1,8,0:0:0:0:
256,192,24000,5,0,0:0:0:0:
256,192,24075,1,8,0:0:0:0:
256,192,24150,1,0,0:0:0:0:
256,192,24300,1,0,0:0:0:0:
256,192,24375,1,8,0:0:0:0:
256,192,24450,1,0,0:0:0:0:
256,192,24600,1,0,0:0:0:0:
256,192,24675,1,8,0:0:0:0:
256,192,24750,1,0,0:0:0:0:
256,192,24825,1,0,0:0:0:0:
256,192,24900,1,8,0:0:0:0:
256,192,25050,1,8,0:0:0:0:
256,192,25200,1,0,0:0:0:0:
256,192,25275,1,0,0:0:0:0:
256,192,25350,1,8,0:0:0:0:
256,192,25500,1,0,0:0:0:0:
256,192,25575,1,8,0:0:0:0:
256,192,25650,1,0,0:0:0:0:
256,192,25800,1,0,0:0:0:0:
256,192,25875,1,8,0:0:0:0:
256,192,25950,1,0,0:0:0:0:
256,192,26025,1,8,0:0:0:0:
256,192,26100,1,8,0:0:0:0:
256,192,26250,1,0,0:0:0:0:
256,192,26400,1,8,0:0:0:0:
256,192,26550,1,0,0:0:0:0:
256,192,26700,1,8,0:0:0:0:
256,192,26775,1,8,0:0:0:0:
256,192,26850,1,0,0:0:0:0:
256,192,27000,1,8,0:0:0:0:
256,192,27075,1,0,0:0:0:0:
256,192,27150,1,0,0:0:0:0:
256,192,27300,1,0,0:0:0:0:
256,192,27450,1,8,0:0:0:0:
256,192,27600,1,0,0:0:0:0:
256,192,27675,1,0,0:0:0:0:
256,192,27750,1,0,0:0:0:0:
256,192,27825,1,0,0:0:0:0:
256,192,27900,1,8,0:0:0:0:
256,192,28050,1,0,0:0:0:0:
256,192,28200,1,8,0:0:0:0:
256,192,28275,1,8,0:0:0:0:
256,192,28350,1,0,0:0:0:0:
256,192,28500,1,0,0:0:0:0:
256,192,28575,1,0,0:0:0:0:
256,192,28650,1,0,0:0:0:0:
256,192,28800,1,0,0:0:0:0:
256,192,28875,1,0,0:0:0:0:
256,192,28950,1,8,0:0:0:0:
256,192,29100,1,0,0:0:0:0:
256,192,29175,1,0,0:0:0:0:
256,192,29250,1,8,0:0:0:0:
256,192,29325,1,0,0:0:0:0:
256,192,29400,1,8,0:0:0:0:
256,192,29550,1,8,0:0:0:0:
256,192,29700,1,0,0:0:0:0:
256,192,29850,1,8,0:0:0:0:
256,192,30000,1,0,0:0:0:0:
256,192,30075,1,0,0:0:0:0:
256,192,30150,1,8,0:0:0:0:
256,192,30300,1,0,0:0:0:0:
256,192,30375,1,8,0:0:0:0:
256,192,30450,1,0,0:0:0:0:
256,192,30600,1,8,0:0:0:0:
256,192,30750,1,0,0:0:0:0:
256,192,30900,1,8,0:0:0:0:
256,192,30975,1,8,0:0:0:0:
256,192,31050,1,0,0:0:0:0:
256,192,31200,1,8,0:0:0:0:
256,192,31275,1,8,0:0:0:0:
256,192,31350,1,8,0:0:0:0:
256,192,31500,5,8,0:0:0:0:
256,192,31650,1,8,0:0:0:0:
256,192,31800,1,8,0:0:0:0:
256,192,31875,1,8,0:0:0:0:
256,192,31950,1,8,0:0:0:0:
256,192,32025,1,8,0:0:0:0:
256,192,32100,1,8,0:0:0:0:
256,192,32250,1,8,0:0:0:0:
256,192,32400,1,8,0:0:0:0:
256,192,32475,1,8,0:0:0:0:
256,192,32550,1,8,0:0:0:0:
256,192,32625,1,8,0:0:0:0:
256,192,32700,1,8,0:0:0:0:
256,192,32775,1,8,0:0:0:0:
256,192,32850,1,8,0:0:0:0:
256,192,32925,1,8,0:0:0:0:
256,192,33000,1,8,0:0:0:0:
256,192,33075,1,8,0:0:0:0:
256,192,33150,1,8,0:0:0:0:
256,192,33225,1,8,0:0:0:0:
256,192,33300,1,8,0:0:0:0:
256,192,33450,1,0,0:0:0:0:
256,192,33525,1,8,0:0:0:0:
256,192,33750,1,0,0:0:0:0:
256,192,33900,1,8,0:0:0:0:
256,192,34050,1,0,0:0:0:0:
256,192,34200,1,0,0:0:0:0:
256,192,34350,1,8,0:0:0:0:
256,192,34500,1,8,0:0:0:0:
256,192,34650,1,0,0:0:0:0:
256,192,34800,1,0,0:0:0:0:
256,192,34950,1,8,0:0:0:0:
256,192,35100,1,0,0:0:0:0:
256,192,35250,1,0,0:0:0:0:
256,192,35400,1,8,0:0:0:0:
256,192,35550,1,8,0:0:0:0:
256,192,35700,1,0,0:0:0:0:
256,192,35850,1,0,0:0:0:0:
256,192,36000,1,8,0:0:0:0:
256,192,36150,1,0,0:0:0:0:
256,192,36300,1,8,0:0:0:0:
256,192,36450,1,8,0:0:0:0:
256,192,36600,1,0,0:0:0:0:
256,192,36750,1,8,0:0:0:0:
256,192,36900,1,0,0:0:0:0:
256,192,37050,1,0,0:0:0:0:
256,192,37200,1,0,0:0:0:0:
256,192,37350,1,8,0:0:0:0:
256,192,37500,1,0,0:0:0:0:
256,192,37650,1,8,0:0:0:0:
256,192,37800,1,0,0:0:0:0:
256,192,37950,1,8,0:0:0:0:
256,192,38100,1,0,0:0:0:0:
256,192,38250,1,8,0:0:0:0:
256,192,38400,1,0,0:0:0:0:
256,192,38550,1,4,0:0:0:0:
256,192,38700,12,0,42000,0:0:0:0:
