osu file format v13

[General]
AudioFilename: Nippontradamus.mp3
AudioLeadIn: 0
PreviewTime: 3450
Countdown: 0
SampleSet: Soft
StackLeniency: 0.7
Mode: 0
LetterboxInBreaks: 1
WidescreenStoryboard: 1

[Editor]
DistanceSpacing: 1.1
BeatDivisor: 4
GridSize: 32
TimelineZoom: 1

[Metadata]
Title:Nippontradamus
TitleUnicode:Nippontradamus
Artist:The Living Tombstone
ArtistUnicode:The Living Tombstone
Creator:Everest Hope
Version:Intermediate
Source:
Tags:MomoKuro-tei Ichimon Nippon Egao Hyakkei
BeatmapID:441828
BeatmapSetID:183949

[Difficulty]
HPDrainRate:5
CircleSize:4
OverallDifficulty:5
ApproachRate:7
SliderMultiplier:1.5
SliderTickRate:1

[Events]
//Background and Video events
0,0,"bg2betch.jpg",0,0
//Break Periods
//Storyboard Layer 0 (Background)
//Storyboard Layer 1 (Fail)
//Storyboard Layer 2 (Pass)
//Storyboard Layer 3 (Foreground)
//Storyboard Sound Samples
//Background Colour Transformations
3,100,0,0,0

[TimingPoints]
0,300,4,1,0,100,1,0
0,-100,4,2,0,100,0,0
12000,-100,4,1,1,100,0,0
14100,-66.6666666666667,4,1,1,100,0,0
14400,-100,4,1,1,100,0,0
14700,-133.333333333333,4,1,1,100,0,0
15000,-100,4,2,0,100,0,0
19200,-100,4,2,1,100,0,0
21600,-100,4,1,1,100,0,0
23700,-66.6666666666667,4,1,1,100,0,0
24000,-100,4,2,0,100,0,0
31200,-100,4,1,1,100,0,0
33300,-66.6666666666667,4,1,1,100,0,0
33600,-100,4,2,1,100,0,0
38700,-100,4,1,1,100,0,0

[Colours]
Combo1 : 0,198,198
Combo2 : 0,0,255
Combo3 : 128,0,255
Combo4 : 0,183,0
Combo5 : 217,0,0
Combo6 : 232,232,232

[HitObjects]
156,88,4800,6,0,L|146:30,2,37.5,4|0|0,0:0|0:0|0:0,0:0:0:0:
207,170,5100,2,0,L|200:211,2,37.5,2|0|0,0:0|0:0|0:0,0:0:0:0:
307,123,5400,2,0,P|370:85|450:118,1,150,4|4,0:0|0:0,0:0:0:0:
381,166,5850,1,0,0:0:0:0:
433,229,6000,2,0,B|427:251|427:251|427:278|427:278|409:306|409:341,1,112.5,0|0,0:0|0:0,0:0:0:0:
381,337,6300,2,0,L|299:343,1,75,4|0,0:0|0:0,0:0:0:0:
244,287,6600,6,0,L|92:279,1,150,0|0,0:0|0:0,0:0:0:0:
47,347,7050,1,0,0:0:0:0:
129,342,7200,2,0,P|164:279|124:208,1,150,4|2,0:0|0:0,0:0:0:0:
58,177,7650,1,0,0:0:0:0:
126,131,7800,6,0,P|159:120|200:123,1,75,4|0,0:0|0:0,0:0:0:0:
280,138,8100,2,0,P|307:159|346:170,1,75,4|0,0:0|0:0,0:0:0:0:
427,206,8400,2,0,P|410:247|442:307,1,112.5,0|0,0:0|0:0,0:0:0:0:
414,314,8700,2,0,L|332:300,1,75,4|0,0:0|0:0,0:0:0:0:
264,334,9000,5,0,0:0:0:0:
199,282,9150,1,4,0:0:0:0:
116,288,9300,2,0,L|68:208,1,75,0|0,0:0|0:0,0:0:0:0:
46,146,9600,6,0,P|74:131|116:135,1,75,4|0,0:0|0:0,0:0:0:0:
197,117,9900,2,0,B|233:105|233:105|292:124|292:124|346:111,1,150,2|4,0:0|0:0,0:0:0:0:
397,51,10350,1,0,0:0:0:0:
414,131,10500,2,0,L|399:249,1,112.5,4|0,0:0|0:0,0:0:0:0:
377,277,10800,6,0,B|336:302|336:302|298:308|227:264,1,150,0|4,0:0|0:0,0:0:0:0:
153,266,11250,1,0,0:0:0:0:
173,185,11400,2,0,L|159:30,1,150,0|0,0:0|0:0,0:0:0:0:
82,4,11850,1,0,0:0:0:0:
256,192,12000,12,4,14100,0:0:0:0:
129,73,14400,6,0,P|163:102|228:100,1,112.5,4|0,0:0|0:0,0:0:0:0:
240,128,14700,2,0,L|239:197,1,56.2500021457673,0|0,0:0|0:0,0:0:0:0:
319,147,15000,2,0,L|320:70,1,75,2|0,0:0|0:0,0:0:0:0:
400,43,15300,6,0,L|399:219,1,150,4|0,0:0|0:0,0:0:0:0:
330,238,15750,1,0,0:0:0:0:
283,306,15900,2,0,P|230:320|193:316,1,75,4|0,0:0|0:0,0:0:0:0:
59,330,16200,2,0,P|96:331|131:343,1,75,0|4,0:0|0:0,0:0:0:0:
159,265,16500,2,0,P|139:200|158:109,1,150,0|4,0:0|0:0,0:0:0:0:
205,57,16950,5,0,0:0:0:0:
243,138,17100,2,0,P|286:155|352:144,1,112.5,2|0,0:0|0:0,0:0:0:0:
366,167,17400,2,0,L|371:249,1,75,4|0,0:0|0:0,0:0:0:0:
331,314,17700,2,0,B|301:317|301:317|276:332|276:332|236:319|178:345,1,150,0|6,0:0|0:0,0:0:0:0:
40,266,18300,1,12,0:0:0:0:
188,195,18600,1,6,0:0:0:0:
70,129,18900,6,0,B|85:100|85:100|113:95|113:95|125:47|186:33,1,150,12|0,0:0|0:0,0:0:0:0:
199,114,19350,1,8,0:0:0:0:
257,56,19500,2,0,L|372:42,1,112.5,0|0,0:0|0:0,0:0:0:0:
374,66,19800,2,0,P|366:105|384:149,1,75,0|0,0:0|0:0,0:0:0:0:
437,192,20100,6,0,L|434:272,1,75,0|0,0:0|0:0,0:0:0:0:
364,311,20400,2,0,P|307:334|246:324,1,112.5,0|0,0:0|0:0,0:0:0:0:
234,315,20700,2,0,L|154:324,1,75,0|0,0:0|0:0,0:0:0:0:
83,290,21000,5,0,0:0:0:0:
105,210,21150,1,0,0:0:0:0:
71,134,21300,2,0,L|68:42,1,75,8|8,0:0|0:0,0:0:0:0:
147,34,21600,6,0,P|196:50|309:32,1,150,8|0,0:0|0:0,0:0:0:0:
431,128,22200,2,0,B|422:182|422:182|432:281,1,150,0|8,0:0|0:0,0:0:0:0:
360,317,22650,1,0,0:0:0:0:
291,271,22800,2,0,P|223:255|145:287,1,150,0|0,0:0|0:0,0:0:0:0:
33,165,23400,1,8,0:0:0:0:
95,111,23550,1,0,0:0:0:0:
70,25,23700,1,4,0:0:0:0:
97,243,24000,6,0,L|147:249,2,37.5,4|0|0,0:0|0:0|0:0,0:0:0:0:
52,172,24300,2,0,L|7:170,2,37.5,2|0|0,0:0|0:0|0:0,0:0:0:0:
133,158,24600,2,0,P|167:102|135:17,1,150,4|4,0:0|0:0,0:0:0:0:
89,87,25050,1,0,0:0:0:0:
162,54,25200,6,0,L|274:66,1,112.5,0|0,0:0|0:0,0:0:0:0:
311,48,25500,2,0,L|399:46,1,75,4|0,0:0|0:0,0:0:0:0:
454,93,25800,2,0,B|468:131|468:131|448:193|448:193|456:254,1,150,0|0,0:0|0:0,0:0:0:0:
420,312,26250,1,0,0:0:0:0:
352,264,26400,6,0,P|296:245|230:266,1,112.5,4|0,0:0|0:0,0:0:0:0:
227,276,26700,2,0,P|187:298|152:300,1,75,2|0,0:0|0:0,0:0:0:0:
84,264,27000,6,0,P|53:229|51:151,1,112.5,4|0,0:0|0:0,0:0:0:0:
70,131,27300,2,0,P|91:91|92:58,1,75,4|0,0:0|0:0,0:0:0:0:
164,20,27600,5,0,0:0:0:0:
242,44,27750,1,0,0:0:0:0:
318,75,27900,2,0,P|360:111|303:179,1,150,4|0,0:0|0:0,0:0:0:0:
233,171,28350,1,4,0:0:0:0:
252,251,28500,2,0,P|311:271|393:240,1,150,0|4,0:0|0:0,0:0:0:0:
464,278,28950,5,0,0:0:0:0:
464,195,29100,1,2,0:0:0:0:
434,118,29250,1,0,0:0:0:0:
421,41,29400,2,0,B|365:33|365:33|261:46,1,150,4|4,0:0|0:0,0:0:0:0:
209,99,29850,1,0,0:0:0:0:
139,53,30000,2,0,P|123:99|167:170,1,112.5,0|0,0:0|0:0,0:0:0:0:
172,176,30300,2,0,P|202:185|250:171,1,75,4|0,0:0|0:0,0:0:0:0:
326,192,30600,6,0,L|328:314,1,112.5,0|0,0:0|0:0,0:0:0:0:
286,308,30900,2,0,B|248:300|248:300|204:309,1,75,0|0,0:0|0:0,0:0:0:0:
256,192,31200,12,8,33300,0:0:0:0:
119,298,33600,6,0,B|132:263|132:263|123:222|123:222|149:176|139:131,1,150,14|10,0:0|0:0,0:0:0:0:
85,94,34050,1,0,0:0:0:0:
162,65,34200,2,0,P|194:80|246:78,1,75,10|0,0:0|0:0,0:0:0:0:
315,81,34500,2,0,P|350:84|394:111,1,75,10|0,0:0|0:0,0:0:0:0:
427,173,34800,6,0,P|442:216|393:306,1,150,10|10,0:0|0:0,0:0:0:0:
324,264,35250,1,0,0:0:0:0:
263,318,35400,2,0,B|231:333|231:333|132:326,1,112.5,10|0,0:0|0:0,0:0:0:0:
116,341,35700,2,0,L|41:297,1,75,10|0,0:0|0:0,0:0:0:0:
41,221,36000,6,0,P|68:171|41:91,1,112.5,10|0,0:0|0:0,0:0:0:0:
78,93,36300,2,0,L|168:99,1,75,10|0,0:0|0:0,0:0:0:0:
210,156,36600,2,0,B|263:162|263:162|306:153|306:153|370:169,1,150,10|10,0:0|0:0,0:0:0:0:
434,139,37050,1,0,0:0:0:0:
479,208,37200,1,10,0:0:0:0:
254,78,37500,1,10,0:0:0:0:
128,206,37800,1,10,0:0:0:0:
410,262,38100,1,10,0:0:0:0:
256,192,38400,12,12,42000,0:0:0:0:
