osu file format v13

[General]
AudioFilename: Nippontradamus.mp3
AudioLeadIn: 0
PreviewTime: 3450
Countdown: 0
SampleSet: Normal
StackLeniency: 0.7
Mode: 0
LetterboxInBreaks: 1
WidescreenStoryboard: 1

[Editor]
DistanceSpacing: 0.6
BeatDivisor: 2
GridSize: 8
TimelineZoom: 2.200003

[Metadata]
Title:Nippontradamus
TitleUnicode:Nippontradamus
Artist:The Living Tombstone
ArtistUnicode:The Living Tombstone
Creator:Everest Hope
Version:Insane
Source:
Tags:MomoKuro-tei Ichimon Nippon Egao Hyakkei
BeatmapID:442861
BeatmapSetID:183949

[Difficulty]
HPDrainRate:5
CircleSize:4
OverallDifficulty:6
ApproachRate:9
SliderMultiplier:1.5
SliderTickRate:1

[Events]
//Background and Video events
0,0,"bg2betch.jpg",0,0
//Break Periods
//Storyboard Layer 0 (Background)
//Storyboard Layer 1 (Fail)
//Storyboard Layer 2 (Pass)
//Storyboard Layer 3 (Foreground)
//Storyboard Sound Samples
//Background Colour Transformations
3,100,0,0,0

[TimingPoints]
0,300,4,1,0,100,1,0
0,-100,4,1,1,100,0,0
12000,-105.263157894737,4,1,1,100,0,0
12300,-111.111111111111,4,1,1,100,0,0
12600,-117.647058823529,4,1,1,100,0,0
12900,-125,4,1,1,100,0,0
13200,-125,4,1,1,100,0,0
13200,-133.333333333333,4,1,1,100,0,0
13500,-117.647058823529,4,1,1,100,0,0
13800,-111.111111111111,4,1,1,100,0,0
14100,-100,4,1,1,100,0,0
14400,-133.333333333333,4,1,1,100,0,0
15000,-100,4,1,1,100,0,0
16200,-128.205128205128,4,2,0,100,0,0
16350,-100,4,1,1,100,0,0
19200,-100,4,2,1,100,0,0
21600,-105.263157894737,4,1,1,100,0,0
21900,-111.111111111111,4,1,1,100,0,0
22200,-117.647058823529,4,1,1,100,0,0
22500,-125,4,1,1,100,0,0
22800,-117.647058823529,4,1,1,100,0,0
23100,-111.111111111111,4,1,1,100,0,0
23400,-105.263157894737,4,1,1,100,0,0
23700,-100,4,1,1,100,0,0
24000,-100,4,2,0,100,0,0
31200,-105.263157894737,4,1,1,100,0,0
31500,-111.111111111111,4,1,1,100,0,0
31800,-117.647058823529,4,1,1,100,0,0
32100,-125,4,1,1,100,0,0
32400,-117.647058823529,4,1,1,100,0,0
32700,-111.111111111111,4,1,1,100,0,0
33000,-105.263157894737,4,1,1,100,0,0
33300,-100,4,1,1,100,0,0
33600,-100,4,2,1,100,0,0
38700,-90.9090909090909,4,1,1,100,0,0
39000,-83.3333333333333,4,1,1,100,0,0
39300,-76.9230769230769,4,1,1,100,0,0

[Colours]
Combo1 : 0,198,198
Combo2 : 0,0,255
Combo3 : 128,0,255
Combo4 : 0,183,0
Combo5 : 217,0,0
Combo6 : 232,232,232

[HitObjects]
256,192,0,12,0,3600,0:0:0:0:
427,56,4800,6,0,P|431:81|434:92,2,37.5,0|0|0,3:3|0:0|0:0,0:0:0:0:
340,138,5100,2,0,P|336:163|333:174,2,37.5,0|0|0,3:0|0:0|0:0,0:0:0:0:
257,52,5400,6,4,L|300:54,1,37.5,0|0,3:3|0:0,0:3:0:0:
163,83,5550,2,0,L|125:84,1,37.5
225,151,5700,2,0,L|267:145,1,37.5,0|0,3:0|0:0,0:0:0:0:
139,178,5850,2,0,L|96:183,1,37.5
51,262,6000,2,0,P|57:303|79:340,1,75
101,345,6225,1,0,0:0:0:0:
130,352,6300,6,0,L|141:309,1,37.5,0|0,3:0|0:0,0:0:0:0:
202,239,6450,2,0,L|213:282,1,37.5
298,228,6600,2,0,L|388:262,1,75,0|0,3:0|3:0,0:0:0:0:
434,355,6900,5,0,0:0:0:0:
295,334,7050,1,0,0:0:0:0:
463,209,7200,2,0,P|433:190|411:153,1,75,0|0,3:0|0:0,0:0:0:0:
237,60,7500,2,0,P|269:73|297:106,1,75,0|0,3:0|0:0,0:0:0:0:
182,144,7800,6,0,P|152:137|141:130,2,37.5,0|0|0,3:0|0:0|0:0,0:0:0:0:
100,232,8100,2,0,L|5:235,1,75,0|0,3:0|0:0,0:0:0:0:
156,329,8400,2,0,L|251:332,1,75
259,324,8625,5,0,0:0:0:0:
288,311,8700,2,0,L|297:272,1,37.5,0|0,3:0|0:0,0:0:0:0:
368,316,8850,2,0,L|383:352,1,37.5
415,251,9000,2,0,L|430:214,1,37.5,0|0,3:0|0:0,0:0:0:0:
348,199,9150,1,0,3:0:0:0:
334,174,9225,1,0,0:0:0:0:
329,142,9300,6,0,P|269:141|223:98,1,112.5
207,90,9600,2,0,L|125:101,1,75,0|0,3:0|0:0,0:0:0:0:
21,261,9900,2,0,L|95:270,1,75,0|0,3:0|0:0,0:0:0:0:
307,303,10200,5,0,3:0:0:0:
164,325,10350,1,0,0:0:0:0:
276,315,10500,2,0,P|315:315|394:357,1,112.5,0|0,3:0|0:0,0:0:0:0:
381,315,10800,2,0,B|368:277|368:277|363:241,1,75,0|0,3:0|0:0,0:0:0:0:
416,143,11100,1,0,3:0:0:0:
315,48,11250,1,0,0:0:0:0:
287,36,11325,1,0,0:0:0:0:
258,30,11400,2,0,B|220:37|220:37|161:33,1,75,0|0,0:0|3:0,0:0:0:0:
155,44,11625,5,0,0:0:0:0:
132,63,11700,2,0,L|137:150,1,75,0|0,0:0|3:0,0:0:0:0:
78,227,12000,2,8,P|30:240|3:241,1,71.2499980974198,8|0,0:0|0:0,1:1:0:0:
174,284,12300,2,0,P|226:293|251:308,1,67.4999979400635,0|8,0:0|0:0,1:1:0:0:
372,201,12600,2,8,P|319:217|295:215,1,63.7500012159348,0|0,0:0|0:0,1:1:0:0:
426,327,12900,2,8,P|464:336|496:333,1,60,8|0,0:0|0:0,1:1:0:0:
422,108,13200,2,8,L|435:33,1,60,8|0,0:0|0:0,1:1:0:0:
302,130,13500,2,0,L|300:66,1,63.7500012159348,0|8,0:0|0:0,0:0:0:0:
187,98,13800,2,0,L|172:33,1,67.4999979400635,0|0,0:0|0:0,0:0:0:0:
44,112,14100,6,0,P|64:163|56:219,1,112.5,8|4,0:0|0:3,0:0:0:0:
48,243,14400,2,0,P|90:254|111:253,1,56.2500021457673,4|0,2:3|0:0,0:0:0:0:
258,293,14700,2,0,P|230:294|203:303,1,56.2500021457673,4|8,2:3|0:0,0:0:0:0:
350,330,15000,6,0,L|433:339,1,75,2|2,2:2|3:2,0:0:0:0:
429,138,15300,2,0,P|434:206|401:262,1,112.5,0|0,3:0|0:0,0:0:0:0:
379,245,15600,2,0,L|304:236,1,75,8|0,2:2|2:0,0:0:0:0:
147,136,15900,1,0,3:3:0:0:
291,116,16050,1,0,3:0:0:0:
166,116,16200,6,0,P|139:112|105:94,1,58.5000019638062,0|0,3:0|3:0,3:0:0:0:
82,98,16425,1,0,0:0:0:0:
57,116,16500,2,0,B|46:152|46:152|51:190|51:190|38:230,1,112.5,8|0,3:2|0:0,0:0:0:0:
53,249,16800,2,8,L|130:267,1,75
152,279,17025,1,4,0:0:0:0:
176,291,17100,6,0,L|183:342,1,37.5,4|4,3:3|0:3,0:0:0:0:
264,268,17250,2,0,L|275:210,1,37.5,6|4,3:3|0:3,3:0:0:0:
357,309,17400,6,0,P|390:312|446:340,1,75,12|0,0:3|0:0,0:0:0:0:
437,195,17700,2,0,P|423:164|419:102,1,75,0|0,3:0|0:0,0:0:0:0:
325,58,18000,6,0,B|302:76|277:70|277:70|266:81|266:81|235:82|219:101,1,112.5,8|0,3:1|0:0,0:2:0:0:
203,110,18300,2,0,P|186:135|93:138,1,112.5,8|0,3:2|0:0,0:0:0:0:
86,158,18600,2,0,L|93:287,1,112.5,12|4,3:3|0:3,0:0:0:0:
116,282,18900,2,0,L|197:292,2,75,0|10|0,3:0|0:2|3:0,0:0:0:0:
89,267,19275,1,0,0:0:0:0:
62,252,19350,1,2,0:0:0:0:
260,226,19500,6,0,P|312:249|371:239,1,112.5,4|0,0:0|0:0,0:0:0:0:
385,261,19800,2,0,L|379:172,1,75
388,157,20025,1,0,0:0:0:0:
398,129,20100,2,0,L|403:54,1,75
294,101,20400,6,0,P|234:102|170:80,1,112.5,4|0,0:0|0:0,0:0:0:0:
158,97,20700,2,0,L|114:167,1,75,0|0,0:0|0:0,0:0:0:0:
23,227,21000,2,0,P|65:259|135:262,1,112.5,4|0,0:0|0:0,0:0:0:0:
141,284,21300,2,0,L|146:322,1,37.5,12|0,0:1|0:1,3:2:0:0:
195,176,21450,2,0,L|203:137,1,37.5,8|0,0:1|0:1,3:2:0:0:
292,182,21600,6,0,P|329:203|402:198,1,106.87499714613,8|0,0:0|0:0,0:0:0:0:
405,186,21900,2,0,P|371:180|342:163,1,67.4999979400635,4|0,3:3|0:0,0:0:0:0:
250,254,22200,2,0,P|284:272|322:277,1,63.7500012159348,0|0,3:0|3:0,0:0:0:0:
220,151,22500,2,0,P|183:138|149:137,1,60,0|0,3:0|3:0,0:0:0:0:
79,178,22800,6,0,L|84:245,1,63.7500012159348,0|0,3:0|3:0,0:0:0:0:
37,97,23100,2,0,L|31:28,1,67.4999979400635,0|4,3:0|0:3,0:0:0:0:
154,294,23400,2,4,L|159:365,1,71.2499980974198
417,354,23700,6,0,L|395:188,1,150
387,176,24075,1,0,0:0:0:0:
372,149,24150,1,0,0:0:0:0:
267,53,24300,5,0,0:0:0:0:
243,71,24375,1,0,0:0:0:0:
215,81,24450,1,0,0:0:0:0:
86,52,24600,6,0,P|73:84|81:124,1,75
66,147,24825,1,0,0:0:0:0:
51,172,24900,2,0,L|56:213,1,37.5
118,291,25050,2,0,L|122:253,1,37.5
197,218,25200,2,0,P|229:214|280:231,1,75
285,241,25425,1,0,0:0:0:0:
296,260,25500,6,0,B|327:334,1,75
335,349,25725,1,0,0:0:0:0:
355,358,25800,2,0,P|387:362|438:345,1,75
467,124,26100,5,0,0:0:0:0:
426,259,26250,1,0,0:0:0:0:
450,97,26400,2,0,P|416:85|372:91,1,75
190,68,26700,2,0,P|227:65|259:47,1,75
139,170,27000,5,0,0:0:0:0:
132,190,27075,1,0,0:0:0:0:
131,212,27150,1,0,0:0:0:0:
307,321,27300,1,0,0:0:0:0:
165,300,27450,1,0,0:0:0:0:
294,341,27600,6,0,L|379:329,1,75
391,309,27825,1,0,0:0:0:0:
406,283,27900,2,0,L|420:246,1,37.5
325,173,28050,2,0,L|339:210,1,37.5
415,122,28200,5,0,0:0:0:0:
412,92,28275,1,0,0:0:0:0:
394,69,28350,1,0,0:0:0:0:
371,53,28425,1,0,0:0:0:0:
341,54,28500,2,0,P|281:64|233:40,1,112.5
186,122,28800,6,0,L|174:162,1,37.5
149,34,28950,2,0,L|74:26,1,75
27,123,29250,1,0,0:0:0:0:
15,153,29325,1,0,0:0:0:0:
7,182,29400,2,0,L|82:174,1,75
177,242,29700,6,0,P|158:283|160:351,1,112.5
187,343,30000,2,0,L|276:336,1,75
441,244,30300,2,0,L|366:238,1,75
348,215,30525,1,0,0:0:0:0:
330,191,30600,6,0,P|319:160|316:112,1,75
218,59,30900,2,0,L|129:70,1,75
86,150,31200,2,0,P|166:178|191:178,1,106.87499714613
210,157,31500,2,0,L|202:224,1,67.4999979400635
33,284,31800,2,0,L|120:281,1,63.7500012159348
334,322,32100,2,0,L|250:303,1,67.4999979400635
398,235,32400,6,0,L|394:158,1,63.7500012159348
232,84,32700,2,0,L|228:147,1,63.7500012159348
407,209,33000,2,0,L|410:145,1,63.7500012159348
94,49,33300,2,0,L|114:186,1,112.5
116,189,33600,6,0,P|77:211|43:215,1,75
17,323,33900,1,0,0:0:0:0:
140,208,34050,1,0,0:0:0:0:
157,349,34200,2,0,P|196:327|230:323,1,75
254,331,34425,1,0,0:0:0:0:
282,342,34500,2,0,B|318:350|318:350|369:344,1,75
415,250,34800,2,0,L|410:290,2,37.5
309,56,35100,5,0,0:0:0:0:
355,166,35250,1,0,0:0:0:0:
201,58,35400,6,0,B|165:68|165:68|125:65,1,75
114,92,35625,1,0,0:0:0:0:
105,120,35700,2,0,P|88:166|86:208,1,75
37,286,36000,2,0,L|33:330,1,37.5
120,341,36150,2,0,L|116:303,1,37.5
196,298,36300,6,0,P|251:312|277:305,1,75
375,333,36600,1,0,0:0:0:0:
326,166,36750,1,0,0:0:0:0:
441,249,36900,1,0,0:0:0:0:
340,139,37050,1,0,0:0:0:0:
353,112,37125,1,0,0:0:0:0:
363,85,37200,6,0,L|231:98,1,112.5
260,122,37500,2,0,P|254:153|176:166,1,112.5
180,199,37800,2,0,L|291:210,1,112.5
309,187,38100,2,0,P|362:188|384:237,1,112.5
401,259,38400,6,0,P|390:307|321:341,1,112.5
317,321,38700,2,0,B|257:307|257:307|189:314,1,123.75000377655
167,324,39000,2,0,P|119:295|108:219,1,134.999995880127
96,183,39300,6,0,L|77:112,2,64.9999970245363
147,190,39600,2,0,B|207:203|207:203|236:159|288:157,1,146.249993305207
314,154,39900,2,0,B|342:157|382:131|382:131|422:158|450:156,1,146.249993305207
464,192,40200,6,0,L|435:350,1,146.249993305207
399,329,40500,2,0,P|352:336|324:333,1,64.9999970245363
292,304,40700,1,0,0:0:0:0:
210,236,40800,6,0,L|140:245,1,64.9999970245363
95,227,41000,1,0,0:0:0:0:
121,123,41100,6,0,L|192:115,1,64.9999970245363
233,93,41300,1,0,0:0:0:0:
332,124,41400,6,0,P|336:157|356:183,1,64.9999970245363
394,216,41600,1,0,0:0:0:0:
467,142,41700,6,0,P|463:109|443:83,1,64.9999970245363
405,50,41900,1,0,0:0:0:0:
357,29,42000,1,0,0:0:0:0:
