osu file format v13

[General]
AudioFilename: Nippontradamus.mp3
AudioLeadIn: 0
PreviewTime: 3450
Countdown: 0
SampleSet: Normal
StackLeniency: 0.7
Mode: 1
LetterboxInBreaks: 0
WidescreenStoryboard: 1

[Editor]
DistanceSpacing: 1.4
BeatDivisor: 2
GridSize: 32
TimelineZoom: 2.3

[Metadata]
Title:Nippontradamus
TitleUnicode:Nippontradamus
Artist:The Living Tombstone
ArtistUnicode:The Living Tombstone
Creator:Everest Hope
Version:Futsuu
Source:
Tags:MomoKuro-tei Ichimon Nippon Egao Hyakkei
BeatmapID:460045
BeatmapSetID:183949

[Difficulty]
HPDrainRate:4
CircleSize:5
OverallDifficulty:4
ApproachRate:6
SliderMultiplier:1
SliderTickRate:1

[Events]
//Background and Video events
0,0,"bg2betch.jpg",0,0
//Break Periods
//Storyboard Layer 0 (Background)
//Storyboard Layer 1 (Fail)
//Storyboard Layer 2 (Pass)
//Storyboard Layer 3 (Foreground)
//Storyboard Sound Samples
//Background Colour Transformations
3,100,0,0,0

[TimingPoints]
0,300,4,1,0,100,1,0
0,-100,4,1,0,100,0,0

[Colours]
Combo1 : 17,216,17
Combo2 : 255,0,128

[HitObjects]
256,192,4800,5,0,0:0:0:0:
256,192,5100,1,8,0:0:0:0:
256,192,5400,1,0,0:0:0:0:
256,192,5700,1,0,0:0:0:0:
256,192,6000,1,8,0:0:0:0:
256,192,6300,1,0,0:0:0:0:
256,192,6600,1,8,0:0:0:0:
256,192,6900,1,0,0:0:0:0:
256,192,7200,1,0,0:0:0:0:
256,192,7500,1,8,0:0:0:0:
256,192,7800,1,0,0:0:0:0:
256,192,8100,1,0,0:0:0:0:
256,192,8400,1,8,0:0:0:0:
256,192,8700,1,0,0:0:0:0:
256,192,9000,1,8,0:0:0:0:
256,192,9300,1,0,0:0:0:0:
256,192,9600,1,8,0:0:0:0:
256,192,9900,1,8,0:0:0:0:
256,192,10200,1,0,0:0:0:0:
256,192,10500,1,0,0:0:0:0:
256,192,10800,1,0,0:0:0:0:
256,192,11100,1,8,0:0:0:0:
256,192,11400,1,0,0:0:0:0:
256,192,11700,1,0,0:0:0:0:
256,192,12000,12,0,14100,0:0:0:0:
256,192,14400,5,0,0:0:0:0:
256,192,14700,1,8,0:0:0:0:
256,192,15300,1,8,0:0:0:0:
256,192,15600,1,0,0:0:0:0:
256,192,15900,1,8,0:0:0:0:
256,192,16200,1,8,0:0:0:0:
256,192,16500,1,0,0:0:0:0:
256,192,16800,1,8,0:0:0:0:
256,192,17100,1,0,0:0:0:0:
256,192,17400,1,0,0:0:0:0:
256,192,17700,1,8,0:0:0:0:
256,192,18300,1,8,0:0:0:0:
256,192,18600,1,0,0:0:0:0:
256,192,18900,1,0,0:0:0:0:
256,192,19200,1,0,0:0:0:0:
256,192,19500,1,0,0:0:0:0:
256,192,19800,1,8,0:0:0:0:
256,192,20400,1,8,0:0:0:0:
256,192,21000,1,8,0:0:0:0:
256,192,21300,1,8,0:0:0:0:
256,192,21600,1,8,0:0:0:0:
256,192,21900,1,0,0:0:0:0:
256,192,22200,1,8,0:0:0:0:
256,192,22350,1,0,0:0:0:0:
256,192,22500,1,8,0:0:0:0:
256,192,22650,1,0,0:0:0:0:
256,192,22950,1,8,0:0:0:0:
256,192,23250,1,0,0:0:0:0:
256,192,23550,1,0,0:0:0:0:
256,192,23700,1,8,0:0:0:0:
256,192,24000,1,0,0:0:0:0:
256,192,24300,1,0,0:0:0:0:
256,192,24600,1,8,0:0:0:0:
256,192,24900,1,0,0:0:0:0:
256,192,25200,1,8,0:0:0:0:
256,192,25500,1,0,0:0:0:0:
256,192,25800,1,8,0:0:0:0:
256,192,26100,1,0,0:0:0:0:
256,192,26400,1,8,0:0:0:0:
256,192,27000,1,8,0:0:0:0:
256,192,27300,1,0,0:0:0:0:
256,192,27600,1,0,0:0:0:0:
256,192,27900,1,8,0:0:0:0:
256,192,28200,1,0,0:0:0:0:
256,192,28800,1,8,0:0:0:0:
256,192,29100,1,0,0:0:0:0:
256,192,29400,1,8,0:0:0:0:
256,192,29700,1,0,0:0:0:0:
256,192,30000,1,0,0:0:0:0:
256,192,30300,1,0,0:0:0:0:
256,192,30600,1,8,0:0:0:0:
256,192,31200,1,0,0:0:0:0:
256,192,31500,1,0,0:0:0:0:
256,192,31650,1,8,0:0:0:0:
256,192,31950,1,0,0:0:0:0:
256,192,32250,1,0,0:0:0:0:
256,192,32400,1,8,0:0:0:0:
256,192,32700,1,0,0:0:0:0:
256,192,32850,1,8,0:0:0:0:
256,192,33150,1,0,0:0:0:0:
256,192,33300,1,12,0:0:0:0:
256,192,33600,1,0,0:0:0:0:
256,192,34200,1,0,0:0:0:0:
256,192,34800,1,0,0:0:0:0:
256,192,35400,1,0,0:0:0:0:
256,192,36000,1,0,0:0:0:0:
256,192,36600,1,0,0:0:0:0:
256,192,37200,1,0,0:0:0:0:
256,192,38400,1,0,0:0:0:0:
256,192,39600,1,0,0:0:0:0:
256,192,40200,12,0,42000,0:0:0:0:
