osu file format v13

[General]
AudioFilename: Nippontradamus.mp3
AudioLeadIn: 0
PreviewTime: 3450
Countdown: 0
SampleSet: Soft
StackLeniency: 0.7
Mode: 0
LetterboxInBreaks: 1
WidescreenStoryboard: 1

[Editor]
DistanceSpacing: 0.8
BeatDivisor: 4
GridSize: 32
TimelineZoom: 1.6

[Metadata]
Title:Nippontradamus
TitleUnicode:Nippontradamus
Artist:The Living Tombstone
ArtistUnicode:The Living Tombstone
Creator:Everest Hope
Version:Another
Source:
Tags:MomoKuro-tei Ichimon Nippon Egao Hyakkei
BeatmapID:440547
BeatmapSetID:183949

[Difficulty]
HPDrainRate:6
CircleSize:4
OverallDifficulty:8
ApproachRate:9
SliderMultiplier:2.4
SliderTickRate:1

[Events]
//Background and Video events
0,0,"bg2betch.jpg",0,0
//Break Periods
//Storyboard Layer 0 (Background)
//Storyboard Layer 1 (Fail)
//Storyboard Layer 2 (Pass)
//Storyboard Layer 3 (Foreground)
//Storyboard Sound Samples
//Background Colour Transformations
3,100,0,0,0

[TimingPoints]
0,300,4,1,0,100,1,0
0,-100,4,2,0,100,0,0
12000,-100,4,1,1,100,0,0
14100,-66.6666666666667,4,1,1,100,0,0
14400,-100,4,1,1,100,0,0
14700,-133.333333333333,4,1,1,100,0,0
15000,-100,4,2,0,100,0,0
19200,-100,4,2,1,100,0,0
21600,-100,4,1,1,100,0,0
23700,-66.6666666666667,4,1,1,100,0,0
24000,-100,4,2,0,100,0,0
31200,-100,4,1,1,100,0,0
33300,-66.6666666666667,4,1,1,100,0,0
33600,-100,4,2,1,100,0,0
38700,-100,4,1,1,100,0,0

[Colours]
Combo1 : 0,198,198
Combo2 : 0,0,255
Combo3 : 128,0,255
Combo4 : 0,183,0
Combo5 : 217,0,0
Combo6 : 232,232,232

[HitObjects]
256,192,0,12,0,3600,0:0:0:0:
214,320,4800,5,4,0:0:0:0:
166,321,4875,1,0,0:0:0:0:
118,322,4950,1,0,0:0:0:0:
373,363,5100,1,2,0:0:0:0:
420,363,5175,1,0,0:0:0:0:
467,364,5250,1,0,0:0:0:0:
286,191,5400,5,4,0:0:0:0:
318,225,5475,1,0,0:0:0:0:
363,241,5550,1,0,0:0:0:0:
410,240,5625,1,0,0:0:0:0:
450,214,5700,6,0,P|472:192|488:162,1,60,4|0,0:0|0:0,0:0:0:0:
316,308,5850,2,0,P|298:333|287:365,1,60,0|0,0:0|0:0,0:0:0:0:
376,160,6000,2,0,P|332:103|280:95,1,120,0|0,0:0|0:0,0:0:0:0:
226,193,6300,5,4,0:0:0:0:
194,159,6375,1,0,0:0:0:0:
149,143,6450,1,0,0:0:0:0:
102,144,6525,1,0,0:0:0:0:
62,170,6600,6,0,P|40:192|24:222,1,60,0|0,0:0|0:0,0:0:0:0:
196,76,6750,2,0,P|214:51|225:19,1,60,4|0,0:0|0:0,0:0:0:0:
136,224,6900,2,0,P|180:281|232:289,1,120,0|0,0:0|0:0,0:0:0:0:
62,53,7200,2,0,P|100:62|129:62,1,60,4|0,0:0|0:0,0:0:0:0:
354,94,7350,2,0,P|318:78|289:73,1,60,0|0,0:0|0:0,0:0:0:0:
482,65,7500,1,2,0:0:0:0:
288,165,7650,1,0,0:0:0:0:
450,331,7800,2,0,P|412:322|383:322,1,60,4|0,0:0|0:0,0:0:0:0:
158,290,7950,2,0,P|194:306|223:311,1,60,0|0,0:0|0:0,0:0:0:0:
30,319,8100,1,4,0:0:0:0:
224,219,8250,1,0,0:0:0:0:
74,231,8400,6,0,P|64:185|68:167,2,60,0|0|0,0:0|0:0|0:0,0:0:0:0:
52,63,8700,1,4,0:0:0:0:
103,77,8775,1,0,0:0:0:0:
156,73,8850,1,0,0:0:0:0:
205,50,8925,1,0,0:0:0:0:
255,69,9000,5,0,0:0:0:0:
306,83,9075,1,0,0:0:0:0:
359,79,9150,1,4,0:0:0:0:
408,56,9225,1,0,0:0:0:0:
452,24,9300,2,0,P|466:56|453:137,1,120,0|0,0:0|0:0,0:0:0:0:
388,254,9600,6,0,P|354:260|326:259,2,60,4|0|0,0:0|0:0|0:0,0:0:0:0:
163,328,9900,2,0,P|192:322|222:322,2,60,2|0|0,0:0|0:0|0:0,0:0:0:0:
89,248,10200,5,4,0:0:0:0:
89,248,10275,1,0,0:0:0:0:
89,248,10350,1,0,0:0:0:0:
138,151,10500,2,0,P|153:97|136:31,1,120,4|0,0:0|0:0,0:0:0:0:
49,99,10800,5,0,0:0:0:0:
245,201,10950,1,0,0:0:0:0:
369,148,11100,2,0,P|341:138|312:135,2,60,4|0|0,0:0|0:0|0:0,0:0:0:0:
176,251,11400,2,0,P|155:301|157:376,1,120,0|4,0:0|0:0,0:0:0:0:
411,341,11700,5,0,0:0:0:0:
411,341,11775,1,0,0:0:0:0:
411,341,11850,1,0,0:0:0:0:
432,247,12000,2,0,L|422:125,1,120,8|0,0:0|0:0,0:0:0:0:
306,42,12300,2,0,L|315:161,1,120,0|8,0:0|0:0,0:0:0:0:
210,260,12600,2,0,L|200:140,1,120,0|0,0:0|0:0,0:0:0:0:
82,56,12900,2,0,L|91:175,1,120,8|0,0:0|0:0,0:0:0:0:
29,275,13200,5,0,0:0:0:0:
153,348,13350,1,0,0:0:0:0:
176,172,13500,1,0,0:0:0:0:
124,254,13650,1,0,0:0:0:0:
193,153,13800,2,0,L|321:176,1,120,8|0,0:0|0:0,0:0:0:0:
512,263,14100,6,0,L|139:323,1,360.000013732911,4|4,0:0|0:0,0:0:0:0:
210,327,14475,1,0,0:0:0:0:
263,333,14550,1,4,0:0:0:0:
316,339,14625,1,0,0:0:0:0:
356,343,14700,1,0,0:0:0:0:
466,183,14850,5,0,0:0:0:0:
412,89,15000,2,0,P|435:55|448:41,2,60,2|0|0,0:0|0:0|0:0,0:0:0:0:
302,140,15300,2,0,P|250:142|191:106,1,120,4|0,0:0|0:0,0:0:0:0:
114,138,15600,5,2,0:0:0:0:
94,188,15675,1,0,0:0:0:0:
75,238,15750,1,0,0:0:0:0:
56,288,15825,1,0,0:0:0:0:
37,338,15900,2,0,P|94:326|159:340,1,120,4|0,0:0|0:0,0:0:0:0:
222,253,16200,5,0,0:0:0:0:
271,273,16275,1,0,0:0:0:0:
324,271,16350,1,4,0:0:0:0:
375,256,16425,1,0,0:0:0:0:
412,217,16500,2,0,P|443:179|456:100,1,120,0|0,0:0|0:0,0:0:0:0:
352,135,16800,6,0,P|293:125|245:89,1,120,4|0,0:0|0:0,0:0:0:0:
193,103,17025,1,0,0:0:0:0:
139,109,17100,1,2,0:0:0:0:
50,170,17250,1,0,0:0:0:0:
189,251,17400,6,0,L|166:371,1,120,4|0,0:0|0:0,0:0:0:0:
213,341,17625,1,0,0:0:0:0:
264,325,17700,1,0,0:0:0:0:
410,350,17850,5,0,0:0:0:0:
326,203,18000,2,0,P|335:248|348:263,2,60,0|0|0,0:0|0:0|0:0,0:0:0:0:
441,81,18300,2,0,P|475:50|481:31,2,60,12|0|0,0:0|0:0|0:0,0:0:0:0:
276,45,18600,2,0,P|232:30|213:34,2,60,6|0|0,0:0|0:0|0:0,0:0:0:0:
216,136,18900,1,12,0:0:0:0:
180,176,18975,1,0,0:0:0:0:
135,207,19050,1,8,0:0:0:0:
86,230,19125,1,0,0:0:0:0:
34,246,19200,6,0,P|62:290|65:371,1,120,0|8,0:0|0:0,0:0:0:0:
218,296,19500,1,0,0:0:0:0:
218,296,19650,1,0,0:0:0:0:
322,323,19800,2,0,P|366:318|448:344,1,120,0|0,0:0|0:0,0:0:0:0:
410,296,20025,5,0,0:0:0:0:
388,246,20100,1,0,0:0:0:0:
379,192,20175,1,0,0:0:0:0:
388,138,20250,1,0,0:0:0:0:
415,91,20325,1,0,0:0:0:0:
460,62,20400,6,0,L|336:72,1,120,0|0,0:0|0:0,0:0:0:0:
290,168,20700,2,0,L|163:153,1,120,0|0,0:0|0:0,0:0:0:0:
130,117,20925,1,0,0:0:0:0:
130,117,21000,2,0,P|150:186|146:248,1,120,0|0,0:0|0:0,0:0:0:0:
254,282,21300,5,8,0:0:0:0:
307,275,21375,1,8,0:0:0:0:
360,280,21450,1,8,0:0:0:0:
410,298,21525,1,8,0:0:0:0:
454,328,21600,2,0,P|450:263|474:197,1,120,8|0,0:0|0:0,0:0:0:0:
366,133,21900,5,0,0:0:0:0:
169,59,22200,1,0,0:0:0:0:
276,63,22350,1,0,0:0:0:0:
81,134,22500,1,8,0:0:0:0:
109,340,22650,5,0,0:0:0:0:
77,236,22800,1,0,0:0:0:0:
219,324,22950,1,8,0:0:0:0:
324,346,23100,6,0,P|365:329|445:333,1,120,0|0,0:0|0:0,0:0:0:0:
431,222,23400,2,0,L|425:99,1,120,0|0,0:0|0:0,0:0:0:0:
46,62,23700,6,0,P|193:98|410:99,1,360.000013732911,4|4,0:0|0:0,0:0:0:0:
355,129,24075,5,0,0:0:0:0:
312,162,24150,1,0,0:0:0:0:
345,264,24300,6,0,P|368:281|407:295,2,60,2|0|0,0:0|0:0|0:0,0:0:0:0:
249,315,24600,1,4,0:0:0:0:
198,333,24675,1,0,0:0:0:0:
144,336,24750,1,0,0:0:0:0:
92,319,24825,1,0,0:0:0:0:
57,277,24900,5,4,0:0:0:0:
109,263,24975,1,0,0:0:0:0:
154,234,25050,1,0,0:0:0:0:
183,188,25125,1,0,0:0:0:0:
193,135,25200,2,0,P|140:120|71:122,1,120,0|0,0:0|0:0,0:0:0:0:
259,60,25500,2,0,P|313:65|381:51,1,120,4|0,0:0|0:0,0:0:0:0:
368,183,25800,5,0,0:0:0:0:
349,233,25875,1,0,0:0:0:0:
352,286,25950,1,4,0:0:0:0:
366,337,26025,1,0,0:0:0:0:
398,379,26100,2,0,P|438:336|450:275,1,120,0|0,0:0|0:0,0:0:0:0:
423,79,26400,5,4,0:0:0:0:
423,79,26475,1,0,0:0:0:0:
423,79,26550,1,0,0:0:0:0:
132,93,26700,2,0,P|97:67|81:42,2,60,2|0|0,0:0|0:0|0:0,0:0:0:0:
153,198,27000,2,0,P|147:241|134:267,2,60,4|0|0,0:0|0:0|0:0,0:0:0:0:
239,132,27300,2,0,P|265:118|294:112,2,60,4|0|0,0:0|0:0|0:0,0:0:0:0:
260,238,27600,5,0,0:0:0:0:
280,287,27675,1,0,0:0:0:0:
319,323,27750,1,0,0:0:0:0:
371,335,27825,1,0,0:0:0:0:
423,324,27900,1,4,0:0:0:0:
467,293,27975,1,0,0:0:0:0:
414,280,28050,5,0,0:0:0:0:
365,255,28125,1,0,0:0:0:0:
331,212,28200,1,0,0:0:0:0:
318,159,28275,1,0,0:0:0:0:
318,105,28350,1,4,0:0:0:0:
340,56,28425,1,0,0:0:0:0:
368,102,28500,6,0,P|406:161|463:177,1,120,0|0,0:0|0:0,0:0:0:0:
156,82,28800,6,0,P|174:44|179:26,2,60,4|0|0,0:0|0:0|0:0,0:0:0:0:
70,147,29100,2,0,P|60:206|23:262,1,120,2|0,0:0|0:0,0:0:0:0:
82,245,29325,1,0,0:0:0:0:
135,234,29400,1,4,0:0:0:0:
252,327,29550,5,0,0:0:0:0:
349,279,29700,2,0,P|399:293|472:275,1,120,4|0,0:0|0:0,0:0:0:0:
468,170,30000,2,0,L|481:93,2,60,0|0|0,0:0|0:0|0:0,0:0:0:0:
333,36,30300,2,0,L|332:107,2,60,4|0|0,0:0|0:0|0:0,0:0:0:0:
203,36,30600,2,0,P|177:82|193:167,1,120,0|4,0:0|0:0,0:0:0:0:
275,201,30900,2,0,P|254:228|162:246,1,120,0|0,0:0|0:0,0:0:0:0:
85,187,31200,5,8,0:0:0:0:
91,294,31350,1,0,0:0:0:0:
200,342,31500,1,0,0:0:0:0:
331,329,31650,1,8,0:0:0:0:
422,217,31800,1,0,0:0:0:0:
391,64,31950,1,0,0:0:0:0:
228,21,32100,1,8,0:0:0:0:
116,65,32250,1,0,0:0:0:0:
255,99,32400,6,0,P|286:145|288:218,1,120,8|0,0:0|0:0,0:0:0:0:
68,289,32700,2,0,P|92:239|154:200,1,120,0|0,0:0|0:0,0:0:0:0:
308,348,33000,2,0,P|252:351|188:317,1,120,0|0,0:0|0:0,0:0:0:0:
438,70,33300,2,0,P|400:147|512:382,1,360.000013732911,8|14,0:0|0:0,0:0:0:0:
485,326,33675,5,0,0:0:0:0:
487,272,33750,1,0,0:0:0:0:
490,218,33825,1,0,0:0:0:0:
493,164,33900,1,10,0:0:0:0:
305,137,34050,5,0,0:0:0:0:
208,88,34200,2,0,P|199:50|203:29,2,60,10|0|0,0:0|0:0|0:0,0:0:0:0:
139,171,34500,2,0,P|97:197|21:202,1,120,10|0,0:0|0:0,0:0:0:0:
105,279,34800,5,10,0:0:0:0:
140,319,34875,1,0,0:0:0:0:
191,333,34950,1,0,0:0:0:0:
244,323,35025,1,0,0:0:0:0:
280,291,35100,2,0,P|322:265|398:260,1,120,10|0,0:0|0:0,0:0:0:0:
493,223,35400,5,10,0:0:0:0:
484,169,35475,1,0,0:0:0:0:
483,115,35550,1,0,0:0:0:0:
489,61,35625,1,0,0:0:0:0:
511,13,35700,1,10,0:0:0:0:
381,75,35850,1,0,0:0:0:0:
243,30,36000,5,10,0:0:0:0:
197,58,36075,1,0,0:0:0:0:
145,72,36150,1,0,0:0:0:0:
91,77,36225,1,0,0:0:0:0:
39,61,36300,1,10,0:0:0:0:
119,180,36450,1,0,0:0:0:0:
120,323,36600,2,0,L|244:350,1,120,10|0,0:0|0:0,0:0:0:0:
333,240,36900,2,0,L|458:229,1,120,10|0,0:0|0:0,0:0:0:0:
439,119,37125,1,0,0:0:0:0:
319,132,37200,6,0,P|266:142|196:34,1,180,10|0,0:0|0:0,0:0:0:0:
185,80,37500,2,0,B|148:96|72:82|72:82|129:112|136:151,1,180,10|0,0:0|0:0,0:0:0:0:
92,131,37725,2,0,P|57:196|176:276,1,240,0|0,0:0|0:0,0:0:0:0:
161,299,38100,2,0,P|238:297|249:204,1,180,10|0,0:0|0:0,0:0:0:0:
228,232,38400,6,0,P|280:232|397:121,1,180,4|0,0:0|0:0,0:0:0:0:
403,181,38700,2,0,L|441:5,1,180,8|0,0:0|0:0,0:0:0:0:
402,20,39000,2,0,B|356:24|333:52|333:52|314:39|314:39|290:85|232:80,1,180,8|0,0:0|0:0,0:0:0:0:
246,126,39300,5,8,0:0:0:0:
218,172,39375,1,0,0:0:0:0:
184,214,39450,1,0,0:0:0:0:
142,248,39525,1,0,0:0:0:0:
90,263,39600,1,8,0:0:0:0:
203,335,39800,5,0,0:0:0:0:
273,349,39900,1,8,0:0:0:0:
371,224,40100,5,0,0:0:0:0:
390,293,40200,1,8,0:0:0:0:
469,171,40400,5,0,0:0:0:0:
474,99,40500,1,8,0:0:0:0:
430,41,40600,1,0,0:0:0:0:
358,34,40700,1,0,0:0:0:0:
296,71,40800,5,8,0:0:0:0:
234,108,40900,1,0,0:0:0:0:
162,106,41000,1,0,0:0:0:0:
94,81,41100,1,8,0:0:0:0:
34,121,41200,5,0,0:0:0:0:
25,192,41300,1,0,0:0:0:0:
77,240,41400,1,8,0:0:0:0:
148,242,41500,1,0,0:0:0:0:
214,270,41600,5,0,0:0:0:0:
259,325,41700,1,8,0:0:0:0:
330,330,41800,1,0,0:0:0:0:
371,271,41900,1,8,0:0:0:0:
328,212,42000,1,12,0:0:0:0:
405,80,42600,5,0,0:0:0:0:
405,80,42675,1,0,0:0:0:0:
405,80,42750,1,0,0:0:0:0:
