osu file format v13

[General]
AudioFilename: Nippontradamus.mp3
AudioLeadIn: 0
PreviewTime: 3450
Countdown: 0
SampleSet: Normal
StackLeniency: 0.7
Mode: 3
LetterboxInBreaks: 1
SpecialStyle: 0
WidescreenStoryboard: 1

[Editor]
DistanceSpacing: 0.6
BeatDivisor: 4
GridSize: 32
TimelineZoom: 2.200003

[Metadata]
Title:Nippontradamus
TitleUnicode:Nippontradamus
Artist:The Living Tombstone
ArtistUnicode:The Living Tombstone
Creator:Everest Hope
Version:8K Insane Collab
Source:
Tags:MomoKuro-tei Ichimon Nippon Egao Hyakkei
BeatmapID:471713
BeatmapSetID:183949

[Difficulty]
HPDrainRate:5
CircleSize:8
OverallDifficulty:6
ApproachRate:9
SliderMultiplier:1.5
SliderTickRate:1

[Events]
//Background and Video events
0,0,"bg2betch.jpg",0,0
//Break Periods
//Storyboard Layer 0 (Background)
//Storyboard Layer 1 (Fail)
//Storyboard Layer 2 (Pass)
//Storyboard Layer 3 (Foreground)
//Storyboard Sound Samples
//Background Colour Transformations
3,100,0,0,0

[TimingPoints]
0,300,4,1,0,100,1,0
4800,-100,4,2,0,100,0,0

[Colours]
Combo1 : 0,198,198
Combo2 : 0,0,255
Combo3 : 128,0,255
Combo4 : 0,183,0
Combo5 : 217,0,0
Combo6 : 232,232,232

[HitObjects]
32,192,4800,5,0,0:0:0:0:
224,192,4800,1,0,0:0:0:0:
352,192,4800,1,0,0:0:0:0:
416,192,4875,1,0,0:0:0:0:
480,192,4950,1,0,0:0:0:0:
224,192,5025,1,0,0:0:0:0:
288,192,5100,1,0,0:0:0:0:
416,192,5100,1,0,0:0:0:0:
224,192,5175,1,0,0:0:0:0:
160,192,5250,1,0,0:0:0:0:
416,192,5325,1,0,0:0:0:0:
224,192,5400,1,0,0:0:0:0:
96,192,5400,1,0,0:0:0:0:
32,192,5400,1,0,0:0:0:0:
288,192,5475,1,0,0:0:0:0:
352,192,5550,1,0,0:0:0:0:
416,192,5625,1,0,0:0:0:0:
480,192,5700,1,0,0:0:0:0:
288,192,5700,1,0,0:0:0:0:
32,192,5700,1,0,0:0:0:0:
96,192,5775,1,0,0:0:0:0:
416,192,5850,1,0,0:0:0:0:
224,192,5850,1,0,0:0:0:0:
352,192,6000,1,0,0:0:0:0:
160,192,6000,1,0,0:0:0:0:
288,192,6075,1,0,0:0:0:0:
416,192,6150,1,0,0:0:0:0:
288,192,6225,1,0,0:0:0:0:
32,192,6300,1,0,0:0:0:0:
416,192,6300,1,0,0:0:0:0:
480,192,6300,1,0,0:0:0:0:
352,192,6375,1,0,0:0:0:0:
288,192,6450,1,0,0:0:0:0:
224,192,6450,1,0,0:0:0:0:
416,192,6525,1,0,0:0:0:0:
32,192,6600,1,0,0:0:0:0:
160,192,6600,1,0,0:0:0:0:
352,192,6600,1,0,0:0:0:0:
32,192,6750,1,0,0:0:0:0:
480,192,6750,1,0,0:0:0:0:
288,192,6750,1,0,0:0:0:0:
352,192,6900,1,0,0:0:0:0:
160,192,6900,1,0,0:0:0:0:
480,192,7050,1,0,0:0:0:0:
288,192,7050,1,0,0:0:0:0:
32,192,7200,1,0,0:0:0:0:
96,192,7200,1,0,0:0:0:0:
224,192,7200,1,0,0:0:0:0:
288,192,7275,1,0,0:0:0:0:
352,192,7350,1,0,0:0:0:0:
480,192,7425,1,0,0:0:0:0:
352,192,7500,1,0,0:0:0:0:
224,192,7500,1,0,0:0:0:0:
416,192,7575,1,0,0:0:0:0:
480,192,7650,1,0,0:0:0:0:
224,192,7725,1,0,0:0:0:0:
32,192,7800,1,0,0:0:0:0:
480,192,7800,1,0,0:0:0:0:
416,192,7800,1,0,0:0:0:0:
352,192,7875,1,0,0:0:0:0:
288,192,7950,1,0,0:0:0:0:
224,192,8025,1,0,0:0:0:0:
32,192,8100,1,0,0:0:0:0:
96,192,8100,1,0,0:0:0:0:
160,192,8100,1,0,0:0:0:0:
416,192,8175,1,0,0:0:0:0:
288,192,8250,1,0,0:0:0:0:
352,192,8250,1,0,0:0:0:0:
96,192,8400,1,0,0:0:0:0:
224,192,8400,1,0,0:0:0:0:
288,192,8475,1,0,0:0:0:0:
352,192,8550,1,0,0:0:0:0:
416,192,8625,1,0,0:0:0:0:
32,192,8700,1,0,0:0:0:0:
160,192,8700,1,0,0:0:0:0:
288,192,8700,1,0,0:0:0:0:
480,192,8775,1,0,0:0:0:0:
352,192,8775,1,0,0:0:0:0:
160,192,8850,1,0,0:0:0:0:
288,192,8850,1,0,0:0:0:0:
480,192,8925,1,0,0:0:0:0:
352,192,8925,1,0,0:0:0:0:
32,192,9000,1,0,0:0:0:0:
96,192,9000,1,0,0:0:0:0:
160,192,9000,1,0,0:0:0:0:
224,192,9075,1,0,0:0:0:0:
416,192,9150,1,0,0:0:0:0:
288,192,9225,1,0,0:0:0:0:
224,192,9300,1,0,0:0:0:0:
416,192,9300,1,0,0:0:0:0:
96,192,9450,1,0,0:0:0:0:
32,192,9600,1,0,0:0:0:0:
160,192,9600,1,0,0:0:0:0:
288,192,9600,1,0,0:0:0:0:
352,192,9675,1,0,0:0:0:0:
416,192,9750,1,0,0:0:0:0:
352,192,9825,1,0,0:0:0:0:
288,192,9900,1,0,0:0:0:0:
224,192,9900,1,0,0:0:0:0:
160,192,9975,1,0,0:0:0:0:
224,192,10050,1,0,0:0:0:0:
288,192,10125,1,0,0:0:0:0:
32,192,10200,1,0,0:0:0:0:
352,192,10200,1,0,0:0:0:0:
416,192,10200,1,0,0:0:0:0:
224,192,10350,1,0,0:0:0:0:
160,192,10350,1,0,0:0:0:0:
32,192,10500,1,0,0:0:0:0:
352,192,10500,1,0,0:0:0:0:
288,192,10500,1,0,0:0:0:0:
96,192,10650,1,0,0:0:0:0:
224,192,10800,1,0,0:0:0:0:
288,192,10800,1,0,0:0:0:0:
352,192,10800,1,0,0:0:0:0:
32,192,11100,1,0,0:0:0:0:
224,192,11100,1,0,0:0:0:0:
288,192,11100,1,0,0:0:0:0:
352,192,11100,1,0,0:0:0:0:
416,192,11175,1,0,0:0:0:0:
480,192,11250,1,0,0:0:0:0:
160,192,11325,1,0,0:0:0:0:
32,192,11400,1,0,0:0:0:0:
224,192,11400,1,0,0:0:0:0:
288,192,11400,1,0,0:0:0:0:
352,192,11400,1,0,0:0:0:0:
32,192,11550,1,0,0:0:0:0:
96,192,11550,1,0,0:0:0:0:
160,192,11550,1,0,0:0:0:0:
416,192,11700,1,0,0:0:0:0:
288,192,11700,1,0,0:0:0:0:
224,192,11775,1,0,0:0:0:0:
160,192,11850,1,0,0:0:0:0:
96,192,11925,1,0,0:0:0:0:
32,192,12000,1,0,0:0:0:0:
288,192,12000,1,0,0:0:0:0:
480,192,12150,1,0,0:0:0:0:
224,192,12150,1,0,0:0:0:0:
96,192,12300,1,0,0:0:0:0:
416,192,12300,1,0,0:0:0:0:
480,192,12450,1,0,0:0:0:0:
224,192,12450,1,0,0:0:0:0:
32,192,12600,1,0,0:0:0:0:
288,192,12600,1,0,0:0:0:0:
416,192,12750,1,0,0:0:0:0:
160,192,12750,1,0,0:0:0:0:
96,192,12900,1,0,0:0:0:0:
224,192,12900,1,0,0:0:0:0:
416,192,13050,1,0,0:0:0:0:
288,192,13050,1,0,0:0:0:0:
96,192,13200,1,0,0:0:0:0:
160,192,13200,1,0,0:0:0:0:
224,192,13350,1,0,0:0:0:0:
352,192,13350,1,0,0:0:0:0:
480,192,13500,1,0,0:0:0:0:
288,192,13500,1,0,0:0:0:0:
32,192,13650,1,0,0:0:0:0:
288,192,13650,1,0,0:0:0:0:
160,192,13800,1,0,0:0:0:0:
480,192,13800,1,0,0:0:0:0:
96,192,13950,1,0,0:0:0:0:
416,192,13950,1,0,0:0:0:0:
480,192,14100,1,0,0:0:0:0:
32,192,14100,1,0,0:0:0:0:
352,192,14400,1,0,0:0:0:0:
288,192,14400,1,0,0:0:0:0:
224,192,14550,1,0,0:0:0:0:
160,192,14550,1,0,0:0:0:0:
352,192,14700,1,0,0:0:0:0:
416,192,14700,1,0,0:0:0:0:
480,192,14775,1,0,0:0:0:0:
288,192,14850,1,0,0:0:0:0:
224,192,14925,1,0,0:0:0:0:
160,192,15000,1,0,0:0:0:0:
96,192,15000,1,0,0:0:0:0:
32,192,15000,1,0,0:0:0:0:
224,192,15150,1,0,0:0:0:0:
288,192,15225,1,0,0:0:0:0:
32,192,15300,1,0,0:0:0:0:
480,192,15300,1,0,0:0:0:0:
352,192,15300,1,0,0:0:0:0:
224,192,15600,1,0,0:0:0:0:
96,192,15600,1,0,0:0:0:0:
288,192,15675,1,0,0:0:0:0:
352,192,15750,1,0,0:0:0:0:
224,192,15825,1,0,0:0:0:0:
480,192,15900,1,0,0:0:0:0:
416,192,15900,1,0,0:0:0:0:
352,192,15975,1,0,0:0:0:0:
288,192,16050,1,0,0:0:0:0:
224,192,16050,1,0,0:0:0:0:
416,192,16125,1,0,0:0:0:0:
160,192,16200,1,0,0:0:0:0:
96,192,16200,1,0,0:0:0:0:
32,192,16200,1,0,0:0:0:0:
352,192,16275,1,0,0:0:0:0:
416,192,16275,1,0,0:0:0:0:
32,192,16350,1,0,0:0:0:0:
224,192,16350,1,0,0:0:0:0:
288,192,16350,1,0,0:0:0:0:
160,192,16425,1,0,0:0:0:0:
96,192,16425,1,0,0:0:0:0:
32,192,16500,1,0,0:0:0:0:
416,192,16500,1,0,0:0:0:0:
480,192,16500,1,0,0:0:0:0:
352,192,16575,1,0,0:0:0:0:
288,192,16650,1,0,0:0:0:0:
160,192,16725,1,0,0:0:0:0:
288,192,16800,1,0,0:0:0:0:
416,192,16800,1,0,0:0:0:0:
32,192,16800,1,0,0:0:0:0:
480,192,16875,1,0,0:0:0:0:
160,192,16950,1,0,0:0:0:0:
288,192,16950,1,0,0:0:0:0:
416,192,17025,1,0,0:0:0:0:
480,192,17100,1,0,0:0:0:0:
352,192,17100,1,0,0:0:0:0:
224,192,17100,1,0,0:0:0:0:
96,192,17100,1,0,0:0:0:0:
160,192,17250,1,0,0:0:0:0:
288,192,17250,1,0,0:0:0:0:
416,192,17250,1,0,0:0:0:0:
32,192,17400,1,0,0:0:0:0:
224,192,17400,1,0,0:0:0:0:
96,192,17400,1,0,0:0:0:0:
416,192,17475,1,0,0:0:0:0:
480,192,17475,1,0,0:0:0:0:
352,192,17550,1,0,0:0:0:0:
288,192,17625,1,0,0:0:0:0:
32,192,17700,1,0,0:0:0:0:
96,192,17700,1,0,0:0:0:0:
224,192,17700,1,0,0:0:0:0:
352,192,17775,1,0,0:0:0:0:
416,192,17850,1,0,0:0:0:0:
480,192,17925,1,0,0:0:0:0:
160,192,18000,1,0,0:0:0:0:
288,192,18000,1,0,0:0:0:0:
416,192,18000,1,0,0:0:0:0:
32,192,18300,1,0,0:0:0:0:
96,192,18300,1,0,0:0:0:0:
224,192,18300,1,0,0:0:0:0:
352,192,18300,1,0,0:0:0:0:
32,192,18600,1,0,0:0:0:0:
480,192,18600,1,0,0:0:0:0:
352,192,18600,1,0,0:0:0:0:
224,192,18600,1,0,0:0:0:0:
96,192,18750,1,0,0:0:0:0:
288,192,18750,1,0,0:0:0:0:
160,192,18900,1,0,0:0:0:0:
288,192,18900,1,0,0:0:0:0:
416,192,18900,1,0,0:0:0:0:
96,192,19050,1,0,0:0:0:0:
32,192,19200,1,0,0:0:0:0:
288,192,19200,1,0,0:0:0:0:
32,192,19500,1,0,0:0:0:0:
288,192,19500,1,0,0:0:0:0:
32,192,19800,1,0,0:0:0:0:
288,192,19800,1,0,0:0:0:0:
288,192,19875,1,0,0:0:0:0:
288,192,19950,1,0,0:0:0:0:
32,192,19950,1,0,0:0:0:0:
32,192,20025,1,0,0:0:0:0:
32,192,20100,1,0,0:0:0:0:
288,192,20100,1,0,0:0:0:0:
288,192,20250,1,0,0:0:0:0:
32,192,20400,1,0,0:0:0:0:
288,192,20400,1,0,0:0:0:0:
32,192,20700,1,0,0:0:0:0:
288,192,20700,1,0,0:0:0:0:
288,192,21000,1,0,0:0:0:0:
32,192,21000,1,0,0:0:0:0:
288,192,21300,1,0,0:0:0:0:
32,192,21300,1,0,0:0:0:0:
288,192,21375,1,0,0:0:0:0:
288,192,21450,1,0,0:0:0:0:
32,192,21600,1,0,0:0:0:0:
288,192,21600,1,0,0:0:0:0:
480,192,21600,1,0,0:0:0:0:
416,192,21675,1,0,0:0:0:0:
352,192,21750,1,0,0:0:0:0:
288,192,21900,1,0,0:0:0:0:
480,192,21900,1,0,0:0:0:0:
96,192,21900,1,0,0:0:0:0:
416,192,21975,1,0,0:0:0:0:
352,192,22050,1,0,0:0:0:0:
288,192,22200,1,0,0:0:0:0:
416,192,22200,1,0,0:0:0:0:
96,192,22200,1,0,0:0:0:0:
32,192,22200,1,0,0:0:0:0:
352,192,22275,1,0,0:0:0:0:
288,192,22350,1,0,0:0:0:0:
160,192,22350,1,0,0:0:0:0:
160,192,22500,1,0,0:0:0:0:
352,192,22500,1,0,0:0:0:0:
96,192,22500,1,0,0:0:0:0:
32,192,22500,1,0,0:0:0:0:
288,192,22575,1,0,0:0:0:0:
224,192,22650,1,0,0:0:0:0:
160,192,22800,1,0,0:0:0:0:
96,192,22800,1,0,0:0:0:0:
480,192,22800,1,0,0:0:0:0:
416,192,22875,1,0,0:0:0:0:
352,192,22950,1,0,0:0:0:0:
288,192,23100,1,0,0:0:0:0:
32,192,23100,1,0,0:0:0:0:
416,192,23250,1,0,0:0:0:0:
480,192,23400,1,0,0:0:0:0:
32,192,23400,1,0,0:0:0:0:
416,192,23475,1,0,0:0:0:0:
352,192,23550,1,0,0:0:0:0:
32,192,23700,1,0,0:0:0:0:
288,192,23700,1,0,0:0:0:0:
