osu file format v13

[General]
AudioFilename: Nippontradamus.mp3
AudioLeadIn: 0
PreviewTime: 3450
Countdown: 0
SampleSet: Soft
StackLeniency: 0.7
Mode: 3
LetterboxInBreaks: 1
SpecialStyle: 0
WidescreenStoryboard: 1

[Editor]
DistanceSpacing: 0.6
BeatDivisor: 4
GridSize: 32
TimelineZoom: 2.100003

[Metadata]
Title:Nippontradamus
TitleUnicode:Nippontradamus
Artist:The Living Tombstone
ArtistUnicode:The Living Tombstone
Creator:Everest Hope
Version:4K Normal
Source:
Tags:MomoKuro-tei Ichimon Nippon Egao Hyakkei
BeatmapID:512834
BeatmapSetID:183949

[Difficulty]
HPDrainRate:4
CircleSize:4
OverallDifficulty:4
ApproachRate:9
SliderMultiplier:1.5
SliderTickRate:1

[Events]
//Background and Video events
0,0,"bg2betch.jpg",0,0
//Break Periods
//Storyboard Layer 0 (Background)
//Storyboard Layer 1 (Fail)
//Storyboard Layer 2 (Pass)
//Storyboard Layer 3 (Foreground)
//Storyboard Sound Samples
//Background Colour Transformations
3,100,0,0,0

[TimingPoints]
0,300,4,1,0,100,1,0
4800,-100,4,2,0,100,0,0

[Colours]
Combo1 : 0,198,198
Combo2 : 0,0,255
Combo3 : 128,0,255
Combo4 : 0,183,0
Combo5 : 217,0,0
Combo6 : 232,232,232

[HitObjects]
64,192,4800,5,0,0:0:0:0:
192,192,4875,1,0,0:0:0:0:
320,192,4950,1,0,0:0:0:0:
64,192,5100,1,0,0:0:0:0:
320,192,5250,1,0,0:0:0:0:
64,192,5400,1,0,0:0:0:0:
192,192,5550,1,0,0:0:0:0:
64,192,5700,1,0,0:0:0:0:
192,192,5775,1,0,0:0:0:0:
320,192,5850,1,0,0:0:0:0:
64,192,6000,1,0,0:0:0:0:
192,192,6150,1,0,0:0:0:0:
64,192,6300,1,0,0:0:0:0:
192,192,6450,1,0,0:0:0:0:
320,192,6600,1,0,0:0:0:0:
64,192,6750,1,0,0:0:0:0:
320,192,6900,1,0,0:0:0:0:
448,192,7050,1,0,0:0:0:0:
192,192,7200,1,0,0:0:0:0:
320,192,7350,1,0,0:0:0:0:
448,192,7500,1,0,0:0:0:0:
320,192,7650,1,0,0:0:0:0:
64,192,7800,1,0,0:0:0:0:
192,192,7950,1,0,0:0:0:0:
320,192,8100,1,0,0:0:0:0:
192,192,8250,1,0,0:0:0:0:
448,192,8400,1,0,0:0:0:0:
320,192,8550,1,0,0:0:0:0:
448,192,8700,1,0,0:0:0:0:
192,192,8850,1,0,0:0:0:0:
448,192,9000,1,0,0:0:0:0:
320,192,9150,1,0,0:0:0:0:
192,192,9300,1,0,0:0:0:0:
64,192,9450,1,0,0:0:0:0:
320,192,9600,1,0,0:0:0:0:
192,192,9675,1,0,0:0:0:0:
64,192,9750,1,0,0:0:0:0:
320,192,9900,1,0,0:0:0:0:
64,192,10050,1,0,0:0:0:0:
320,192,10200,1,0,0:0:0:0:
64,192,10350,1,0,0:0:0:0:
320,192,10500,1,0,0:0:0:0:
64,192,10650,1,0,0:0:0:0:
448,192,10800,1,0,0:0:0:0:
448,192,11100,1,0,0:0:0:0:
448,192,11250,1,0,0:0:0:0:
448,192,11400,1,0,0:0:0:0:
64,192,11700,1,0,0:0:0:0:
64,192,11850,1,0,0:0:0:0:
64,192,12000,1,0,0:0:0:0:
192,192,12150,1,0,0:0:0:0:
320,192,12300,1,0,0:0:0:0:
448,192,12450,1,0,0:0:0:0:
320,192,12600,1,0,0:0:0:0:
192,192,12750,1,0,0:0:0:0:
64,192,12900,1,0,0:0:0:0:
192,192,13050,1,0,0:0:0:0:
320,192,13200,1,0,0:0:0:0:
192,192,13350,1,0,0:0:0:0:
448,192,13500,1,0,0:0:0:0:
320,192,13650,1,0,0:0:0:0:
448,192,13800,1,0,0:0:0:0:
192,192,13950,1,0,0:0:0:0:
448,192,14100,1,0,0:0:0:0:
64,192,14100,1,0,0:0:0:0:
320,192,14400,1,0,0:0:0:0:
448,192,14550,1,0,0:0:0:0:
192,192,14700,1,0,0:0:0:0:
64,192,14850,1,0,0:0:0:0:
320,192,15000,1,0,0:0:0:0:
192,192,15150,1,0,0:0:0:0:
64,192,15300,1,0,0:0:0:0:
320,192,15600,1,0,0:0:0:0:
192,192,15750,1,0,0:0:0:0:
64,192,15900,1,0,0:0:0:0:
448,192,16050,1,0,0:0:0:0:
64,192,16200,1,0,0:0:0:0:
320,192,16350,1,0,0:0:0:0:
192,192,16500,1,0,0:0:0:0:
448,192,16650,1,0,0:0:0:0:
64,192,16800,1,0,0:0:0:0:
64,192,16950,1,0,0:0:0:0:
192,192,17025,1,0,0:0:0:0:
320,192,17100,1,0,0:0:0:0:
192,192,17250,1,0,0:0:0:0:
320,192,17400,1,0,0:0:0:0:
192,192,17550,1,0,0:0:0:0:
64,192,17700,1,0,0:0:0:0:
192,192,17850,1,0,0:0:0:0:
64,192,18000,1,0,0:0:0:0:
192,192,18150,1,0,0:0:0:0:
64,192,18300,1,0,0:0:0:0:
192,192,18450,1,0,0:0:0:0:
448,192,18600,1,0,0:0:0:0:
320,192,18750,1,0,0:0:0:0:
448,192,18900,1,0,0:0:0:0:
320,192,19050,1,0,0:0:0:0:
320,192,19200,1,0,0:0:0:0:
64,192,19200,1,0,0:0:0:0:
320,192,19500,1,0,0:0:0:0:
64,192,19500,1,0,0:0:0:0:
448,192,19800,1,0,0:0:0:0:
192,192,19800,1,0,0:0:0:0:
448,192,20100,1,0,0:0:0:0:
192,192,20100,1,0,0:0:0:0:
448,192,20250,1,0,0:0:0:0:
192,192,20250,1,0,0:0:0:0:
192,192,20400,1,0,0:0:0:0:
448,192,20400,1,0,0:0:0:0:
64,192,20700,1,0,0:0:0:0:
320,192,20700,1,0,0:0:0:0:
320,192,21000,1,0,0:0:0:0:
64,192,21000,1,0,0:0:0:0:
192,192,21300,1,0,0:0:0:0:
448,192,21300,1,0,0:0:0:0:
448,192,21450,1,0,0:0:0:0:
192,192,21450,1,0,0:0:0:0:
192,192,21600,1,0,0:0:0:0:
448,192,21600,1,0,0:0:0:0:
64,192,21750,1,0,0:0:0:0:
192,192,21900,1,0,0:0:0:0:
320,192,22050,1,0,0:0:0:0:
448,192,22200,1,0,0:0:0:0:
320,192,22350,1,0,0:0:0:0:
192,192,22500,1,0,0:0:0:0:
64,192,22650,1,0,0:0:0:0:
192,192,22800,1,0,0:0:0:0:
320,192,22950,1,0,0:0:0:0:
192,192,23100,1,0,0:0:0:0:
448,192,23250,1,0,0:0:0:0:
192,192,23400,1,0,0:0:0:0:
320,192,23550,1,0,0:0:0:0:
64,192,23700,1,0,0:0:0:0:
448,192,23700,1,0,0:0:0:0:
64,192,24000,1,0,0:0:0:0:
192,192,24075,1,0,0:0:0:0:
320,192,24150,1,0,0:0:0:0:
448,192,24300,1,0,0:0:0:0:
192,192,24450,1,0,0:0:0:0:
64,192,24600,1,0,0:0:0:0:
192,192,24675,1,0,0:0:0:0:
320,192,24750,1,0,0:0:0:0:
448,192,24900,1,0,0:0:0:0:
320,192,24975,1,0,0:0:0:0:
192,192,25050,1,0,0:0:0:0:
64,192,25200,1,0,0:0:0:0:
192,192,25350,1,0,0:0:0:0:
320,192,25500,1,0,0:0:0:0:
192,192,25650,1,0,0:0:0:0:
320,192,25800,1,0,0:0:0:0:
192,192,25950,1,0,0:0:0:0:
64,192,26100,1,0,0:0:0:0:
192,192,26250,1,0,0:0:0:0:
448,192,26400,1,0,0:0:0:0:
320,192,26550,1,0,0:0:0:0:
192,192,26700,1,0,0:0:0:0:
320,192,26850,1,0,0:0:0:0:
448,192,27000,1,0,0:0:0:0:
192,192,27150,1,0,0:0:0:0:
320,192,27300,1,0,0:0:0:0:
448,192,27450,1,0,0:0:0:0:
320,192,27600,1,0,0:0:0:0:
192,192,27750,1,0,0:0:0:0:
448,192,27900,1,0,0:0:0:0:
192,192,28050,1,0,0:0:0:0:
448,192,28200,1,0,0:0:0:0:
192,192,28350,1,0,0:0:0:0:
448,192,28500,1,0,0:0:0:0:
320,192,28650,1,0,0:0:0:0:
192,192,28800,1,0,0:0:0:0:
320,192,28950,1,0,0:0:0:0:
64,192,29100,1,0,0:0:0:0:
192,192,29250,1,0,0:0:0:0:
64,192,29400,1,0,0:0:0:0:
192,192,29550,1,0,0:0:0:0:
64,192,29700,1,0,0:0:0:0:
192,192,29850,1,0,0:0:0:0:
320,192,29925,1,0,0:0:0:0:
448,192,30000,1,0,0:0:0:0:
192,192,30300,1,0,0:0:0:0:
192,192,30600,1,0,0:0:0:0:
320,192,30900,1,0,0:0:0:0:
64,192,31050,1,0,0:0:0:0:
192,192,31200,1,0,0:0:0:0:
448,192,31350,1,0,0:0:0:0:
192,192,31500,1,0,0:0:0:0:
448,192,31650,1,0,0:0:0:0:
192,192,31800,1,0,0:0:0:0:
448,192,31950,1,0,0:0:0:0:
192,192,32100,1,0,0:0:0:0:
448,192,32250,1,0,0:0:0:0:
192,192,32400,1,0,0:0:0:0:
448,192,32550,1,0,0:0:0:0:
64,192,32700,1,0,0:0:0:0:
448,192,32850,1,0,0:0:0:0:
64,192,33000,1,0,0:0:0:0:
448,192,33150,1,0,0:0:0:0:
64,192,33300,1,0,0:0:0:0:
448,192,33300,1,0,0:0:0:0:
64,192,33600,1,0,0:0:0:0:
192,192,33750,1,0,0:0:0:0:
448,192,33900,1,0,0:0:0:0:
320,192,34050,1,0,0:0:0:0:
64,192,34200,1,0,0:0:0:0:
320,192,34350,1,0,0:0:0:0:
448,192,34500,1,0,0:0:0:0:
192,192,34650,1,0,0:0:0:0:
448,192,34800,1,0,0:0:0:0:
192,192,34950,1,0,0:0:0:0:
448,192,35100,1,0,0:0:0:0:
192,192,35250,1,0,0:0:0:0:
320,192,35400,1,0,0:0:0:0:
64,192,35550,1,0,0:0:0:0:
192,192,35625,1,0,0:0:0:0:
320,192,35700,1,0,0:0:0:0:
64,192,35850,1,0,0:0:0:0:
192,192,36000,1,0,0:0:0:0:
320,192,36150,1,0,0:0:0:0:
192,192,36225,1,0,0:0:0:0:
64,192,36300,1,0,0:0:0:0:
192,192,36450,1,0,0:0:0:0:
64,192,36600,1,0,0:0:0:0:
192,192,36750,1,0,0:0:0:0:
64,192,36900,1,0,0:0:0:0:
320,192,37050,1,0,0:0:0:0:
448,192,37200,1,0,0:0:0:0:
192,192,37200,1,0,0:0:0:0:
320,192,37500,1,0,0:0:0:0:
64,192,37500,1,0,0:0:0:0:
448,192,37800,1,0,0:0:0:0:
192,192,37800,1,0,0:0:0:0:
64,192,38100,1,0,0:0:0:0:
320,192,38100,1,0,0:0:0:0:
448,192,38400,1,0,0:0:0:0:
192,192,38625,1,0,0:0:0:0:
64,192,38700,1,0,0:0:0:0:
320,192,38925,1,0,0:0:0:0:
192,192,39000,1,0,0:0:0:0:
448,192,39200,1,0,0:0:0:0:
320,192,39300,1,0,0:0:0:0:
448,192,39400,1,0,0:0:0:0:
320,192,39500,1,0,0:0:0:0:
448,192,39600,1,0,0:0:0:0:
320,192,39825,1,0,0:0:0:0:
448,192,39900,1,0,0:0:0:0:
192,192,40125,1,0,0:0:0:0:
320,192,40200,1,0,0:0:0:0:
64,192,40400,1,0,0:0:0:0:
192,192,40500,1,0,0:0:0:0:
64,192,40600,1,0,0:0:0:0:
192,192,40700,1,0,0:0:0:0:
320,192,40800,1,0,0:0:0:0:
448,192,40900,1,0,0:0:0:0:
320,192,41000,1,0,0:0:0:0:
448,192,41100,1,0,0:0:0:0:
320,192,41200,1,0,0:0:0:0:
192,192,41300,1,0,0:0:0:0:
64,192,41400,1,0,0:0:0:0:
192,192,41500,1,0,0:0:0:0:
64,192,41600,1,0,0:0:0:0:
192,192,41700,1,0,0:0:0:0:
320,192,41800,1,0,0:0:0:0:
448,192,41900,1,0,0:0:0:0:
