osu file format v13

[General]
AudioFilename: Nippontradamus.mp3
AudioLeadIn: 0
PreviewTime: 3450
Countdown: 0
SampleSet: Normal
StackLeniency: 0.7
Mode: 3
LetterboxInBreaks: 1
SpecialStyle: 0
WidescreenStoryboard: 1

[Editor]
DistanceSpacing: 0.6
BeatDivisor: 4
GridSize: 32
TimelineZoom: 2.100003

[Metadata]
Title:Nippontradamus
TitleUnicode:Nippontradamus
Artist:The Living Tombstone
ArtistUnicode:The Living Tombstone
Creator:Everest Hope
Version:4K Extra
Source:
Tags:MomoKuro-tei Ichimon Nippon Egao Hyakkei
BeatmapID:471698
BeatmapSetID:183949

[Difficulty]
HPDrainRate:6
CircleSize:4
OverallDifficulty:6
ApproachRate:9
SliderMultiplier:1.5
SliderTickRate:1

[Events]
//Background and Video events
0,0,"bg2betch.jpg",0,0
//Break Periods
//Storyboard Layer 0 (Background)
//Storyboard Layer 1 (Fail)
//Storyboard Layer 2 (Pass)
//Storyboard Layer 3 (Foreground)
//Storyboard Sound Samples
//Background Colour Transformations
3,100,0,0,0

[TimingPoints]
0,300,4,1,0,100,1,0
4800,-100,4,2,0,100,0,0
10200,-333.333333333333,4,2,0,100,0,0
10275,-100,4,2,0,100,0,0
10350,-333.333333333333,4,2,0,100,0,0
10425,-100,4,2,0,100,0,0
10500,-333.333333333333,4,2,0,100,0,0
10575,-100,4,2,0,100,0,0
10800,-66.6666666666667,4,2,0,100,0,0
10875,-100,4,2,0,100,0,0
11100,-66.6666666666667,4,2,0,100,0,0
11250,-100,4,2,0,100,0,0
12000,-105.263157894737,4,2,0,100,0,0
12150,-111.111111111111,4,2,0,100,0,0
12300,-117.647058823529,4,2,0,100,0,0
12450,-125,4,2,0,100,0,0
12600,-133.333333333333,4,2,0,100,0,0
12750,-142.857142857143,4,2,0,100,0,0
12900,-153.846153846154,4,2,0,100,0,0
13050,-166.666666666667,4,2,0,100,0,0
13200,-142.857142857143,4,2,0,100,0,0
13350,-125,4,2,0,100,0,0
13500,-111.111111111111,4,2,0,100,0,0
13650,-100,4,2,0,100,0,0
13800,-90.9090909090909,4,2,0,100,0,0
13950,-83.3333333333333,4,2,0,100,0,0
14100,-66.6666666666667,4,2,0,100,0,0
14400,-200,4,2,0,100,0,0
14925,-57.1428571428571,4,2,0,100,0,0
15000,-100,4,2,0,100,0,0
18000,-57.1428571428571,4,2,0,100,0,0
18075,-100,4,2,0,100,0,0
18300,-57.1428571428571,4,2,0,100,0,0
18375,-100,4,2,0,100,0,0
18600,-57.1428571428571,4,2,0,100,0,0
18675,-100,4,2,0,100,0,0
18900,-57.1428571428571,4,2,0,100,0,0
18975,-100,4,2,0,100,0,0
19050,-57.1428571428571,4,2,0,100,0,0
19125,-100,4,2,0,100,0,0
19200,-57.1428571428571,4,2,0,100,0,0
19275,-100,4,2,0,100,0,0
19500,-57.1428571428571,4,2,0,100,0,0
19575,-100,4,2,0,100,0,0
19800,-57.1428571428571,4,2,0,100,0,0
19875,-100,4,2,0,100,0,0
19950,-57.1428571428571,4,2,0,100,0,0
20025,-100,4,2,0,100,0,0
20100,-57.1428571428571,4,2,0,100,0,0
20175,-100,4,2,0,100,0,0
20400,-57.1428571428571,4,2,0,100,0,0
20475,-100,4,2,0,100,0,0
20700,-57.1428571428571,4,2,0,100,0,0
20775,-100,4,2,0,100,0,0
21000,-57.1428571428571,4,2,0,100,0,0
21075,-100,4,2,0,100,0,0
21300,-57.1428571428571,4,2,0,100,0,0
21375,-100,4,2,0,100,0,0
21450,-57.1428571428571,4,2,0,100,0,0
21525,-100,4,2,0,100,0,0
21600,-57.1428571428571,4,2,0,100,0,0
21675,-100,4,2,0,100,0,0
21750,-105.263157894737,4,2,0,100,0,0
21900,-111.111111111111,4,2,0,100,0,0
22050,-117.647058823529,4,2,0,100,0,0
22200,-125,4,2,0,100,0,0
22350,-133.333333333333,4,2,0,100,0,0
22500,-142.857142857143,4,2,0,100,0,0
22650,-153.846153846154,4,2,0,100,0,0
22800,-133.333333333333,4,2,0,100,0,0
22950,-117.647058823529,4,2,0,100,0,0
23100,-105.263157894737,4,2,0,100,0,0
23250,-95.2380952380952,4,2,0,100,0,0
23400,-86.9565217391304,4,2,0,100,0,0
23550,-80,4,2,0,100,0,0
23700,-66.6666666666667,4,2,0,100,0,0
24000,-100,4,2,0,100,0,0
29400,-333.333333333333,4,2,0,100,0,0
29475,-100,4,2,0,100,0,0
29550,-333.333333333333,4,2,0,100,0,0
29625,-100,4,2,0,100,0,0
29700,-333.333333333333,4,2,0,100,0,0
29775,-100,4,2,0,100,0,0
30000,-66.6666666666667,4,2,0,100,0,0
30075,-100,4,2,0,100,0,0
30300,-66.6666666666667,4,2,0,100,0,0
30450,-100,4,2,0,100,0,0
31200,-105.263157894737,4,2,0,100,0,0
31350,-111.111111111111,4,2,0,100,0,0
31500,-117.647058823529,4,2,0,100,0,0
31650,-125,4,2,0,100,0,0
31800,-133.333333333333,4,2,0,100,0,0
31950,-142.857142857143,4,2,0,100,0,0
32100,-153.846153846154,4,2,0,100,0,0
32250,-166.666666666667,4,2,0,100,0,0
32400,-142.857142857143,4,2,0,100,0,0
32550,-125,4,2,0,100,0,0
32700,-111.111111111111,4,2,0,100,0,0
32850,-100,4,2,0,100,0,0
33000,-90.9090909090909,4,2,0,100,0,0
33150,-83.3333333333333,4,2,0,100,0,0
33300,-66.6666666666667,4,2,0,100,0,0
33600,-100,4,2,0,100,0,0
34800,-95.2380952380952,4,2,0,100,0,0
36000,-90.9090909090909,4,2,0,100,0,0
37200,-57.1428571428571,4,2,0,100,0,0
37275,-100,4,2,0,100,0,0
37500,-57.1428571428571,4,2,0,100,0,0
37575,-100,4,2,0,100,0,0
37800,-57.1428571428571,4,2,0,100,0,0
37875,-100,4,2,0,100,0,0
38100,-57.1428571428571,4,2,0,100,0,0
38175,-100,4,2,0,100,0,0
38325,-57.1428571428571,4,2,0,100,0,0
38400,-100,4,2,0,100,0,0
38625,-57.1428571428571,4,2,0,100,0,0
38700,-100,4,2,0,100,0,0
38925,-57.1428571428571,4,2,0,100,0,0
39000,-100,4,2,0,100,0,0
39200,-57.1428571428571,4,2,0,100,0,0
39300,-100,4,2,0,100,0,0
39400,-57.1428571428571,4,2,0,100,0,0
39500,-100,4,2,0,100,0,0
39600,-57.1428571428571,4,2,0,100,0,0
39700,-100,4,2,0,100,0,0
39825,-57.1428571428571,4,2,0,100,0,0
39900,-100,4,2,0,100,0,0
40125,-57.1428571428571,4,2,0,100,0,0
40200,-100,4,2,0,100,0,0
40400,-57.1428571428571,4,2,0,100,0,0
40500,-100,4,2,0,100,0,0
40600,-55.5555555555556,4,2,0,100,0,0
40700,-100,4,2,0,100,0,0
40800,-54.054054054054,4,2,0,100,0,0
40900,-100,4,2,0,100,0,0
41000,-52.6315789473684,4,2,0,100,0,0
41100,-100,4,2,0,100,0,0
41200,-51.2820512820513,4,2,0,100,0,0
41300,-100,4,2,0,100,0,0
41400,-50,4,2,0,100,0,0
41500,-100,4,2,0,100,0,0
41600,-48.780487804878,4,2,0,100,0,0
41700,-100,4,2,0,100,0,0
41800,-47.6190476190476,4,2,0,100,0,0
41900,-100,4,2,0,100,0,0
42000,-46.5116279069767,4,2,0,100,0,0
42100,-100,4,2,0,100,0,0

[Colours]
Combo1 : 0,198,198
Combo2 : 0,0,255
Combo3 : 128,0,255
Combo4 : 0,183,0
Combo5 : 217,0,0
Combo6 : 232,232,232

[HitObjects]
64,192,4800,5,0,0:0:0:0:
448,192,4800,1,8,0:0:0:0:
192,192,4875,1,0,0:0:0:0:
320,192,4875,1,0,0:0:0:0:
64,192,4950,1,0,0:0:0:0:
448,192,4950,1,0,0:0:0:0:
320,192,5025,1,0,0:0:0:0:
448,192,5100,1,0,0:0:0:0:
64,192,5100,1,8,0:0:0:0:
320,192,5175,1,0,0:0:0:0:
192,192,5175,1,0,0:0:0:0:
64,192,5250,1,0,0:0:0:0:
448,192,5250,1,0,0:0:0:0:
320,192,5325,1,0,0:0:0:0:
64,192,5400,1,0,0:0:0:0:
192,192,5400,1,8,0:0:0:0:
448,192,5475,1,0,0:0:0:0:
64,192,5550,1,0,0:0:0:0:
192,192,5625,1,0,0:0:0:0:
448,192,5700,1,0,0:0:0:0:
320,192,5700,1,8,0:0:0:0:
64,192,5775,1,0,0:0:0:0:
448,192,5850,1,8,0:0:0:0:
64,192,5925,1,0,0:0:0:0:
448,192,6000,1,8,0:0:0:0:
320,192,6000,1,0,0:0:0:0:
192,192,6150,1,0,0:0:0:0:
64,192,6150,1,0,0:0:0:0:
448,192,6225,1,0,0:0:0:0:
64,192,6300,1,0,0:0:0:0:
192,192,6300,1,0,0:0:0:0:
320,192,6300,1,8,0:0:0:0:
448,192,6375,1,0,0:0:0:0:
320,192,6450,1,0,0:0:0:0:
192,192,6450,1,0,0:0:0:0:
448,192,6600,1,8,0:0:0:0:
320,192,6600,1,0,0:0:0:0:
192,192,6675,1,0,0:0:0:0:
64,192,6750,1,0,0:0:0:0:
320,192,6750,1,0,0:0:0:0:
448,192,6900,1,0,0:0:0:0:
320,192,6900,1,8,0:0:0:0:
192,192,6975,1,8,0:0:0:0:
64,192,7050,1,8,0:0:0:0:
320,192,7050,1,0,0:0:0:0:
448,192,7125,1,0,0:0:0:0:
320,192,7200,1,0,0:0:0:0:
64,192,7200,1,8,0:0:0:0:
448,192,7275,1,0,0:0:0:0:
192,192,7275,1,0,0:0:0:0:
64,192,7350,1,0,0:0:0:0:
320,192,7350,1,0,0:0:0:0:
448,192,7425,1,0,0:0:0:0:
192,192,7425,1,0,0:0:0:0:
64,192,7500,1,0,0:0:0:0:
320,192,7500,1,8,0:0:0:0:
448,192,7575,1,0,0:0:0:0:
192,192,7575,1,0,0:0:0:0:
320,192,7650,1,0,0:0:0:0:
64,192,7650,1,0,0:0:0:0:
448,192,7725,1,0,0:0:0:0:
192,192,7725,1,0,0:0:0:0:
64,192,7800,1,8,0:0:0:0:
320,192,7800,1,0,0:0:0:0:
448,192,7875,1,0,0:0:0:0:
192,192,7875,1,0,0:0:0:0:
320,192,7950,1,0,0:0:0:0:
64,192,7950,1,0,0:0:0:0:
192,192,8025,1,0,0:0:0:0:
64,192,8100,1,8,0:0:0:0:
320,192,8100,1,0,0:0:0:0:
192,192,8175,1,0,0:0:0:0:
448,192,8175,1,0,0:0:0:0:
320,192,8250,1,8,0:0:0:0:
448,192,8325,1,0,0:0:0:0:
192,192,8325,1,0,0:0:0:0:
320,192,8400,1,0,0:0:0:0:
64,192,8400,1,8,0:0:0:0:
320,192,8550,1,0,0:0:0:0:
192,192,8625,1,0,0:0:0:0:
64,192,8700,1,0,0:0:0:0:
320,192,8700,1,8,0:0:0:0:
192,192,8775,1,0,0:0:0:0:
320,192,8850,1,0,0:0:0:0:
64,192,8925,1,0,0:0:0:0:
192,192,9000,1,0,0:0:0:0:
320,192,9000,1,8,0:0:0:0:
448,192,9000,1,0,0:0:0:0:
64,192,9075,1,0,0:0:0:0:
192,192,9150,1,0,0:0:0:0:
320,192,9150,1,0,0:0:0:0:
64,192,9225,1,0,0:0:0:0:
448,192,9300,1,0,0:0:0:0:
320,192,9300,1,0,0:0:0:0:
192,192,9300,1,8,0:0:0:0:
192,192,9450,1,8,0:0:0:0:
192,192,9600,1,8,0:0:0:0:
320,192,9675,1,0,0:0:0:0:
448,192,9750,1,0,0:0:0:0:
320,192,9825,1,0,0:0:0:0:
192,192,9900,1,8,0:0:0:0:
64,192,9900,1,0,0:0:0:0:
320,192,9975,1,0,0:0:0:0:
192,192,10050,1,0,0:0:0:0:
64,192,10050,1,0,0:0:0:0:
64,192,10200,1,0,0:0:0:0:
192,192,10200,1,8,0:0:0:0:
448,192,10350,1,8,0:0:0:0:
320,192,10350,1,0,0:0:0:0:
192,192,10500,1,8,0:0:0:0:
64,192,10500,1,0,0:0:0:0:
320,192,10500,1,0,0:0:0:0:
64,192,10800,1,0,0:0:0:0:
320,192,10800,1,8,0:0:0:0:
192,192,11025,1,0,0:0:0:0:
448,192,11100,1,0,0:0:0:0:
320,192,11100,1,8,0:0:0:0:
64,192,11175,1,0,0:0:0:0:
192,192,11175,1,0,0:0:0:0:
448,192,11250,1,0,0:0:0:0:
320,192,11250,1,0,0:0:0:0:
192,192,11325,1,0,0:0:0:0:
320,192,11400,1,8,0:0:0:0:
448,192,11400,1,0,0:0:0:0:
64,192,11400,1,0,0:0:0:0:
64,192,11550,1,0,0:0:0:0:
320,192,11550,1,0,0:0:0:0:
448,192,11550,1,0,0:0:0:0:
192,192,11700,1,0,0:0:0:0:
320,192,11700,1,8,0:0:0:0:
448,192,11775,1,0,0:0:0:0:
64,192,11850,1,8,0:0:0:0:
448,192,11925,1,0,0:0:0:0:
64,192,12000,1,2,0:0:0:0:
192,192,12000,1,8,0:0:0:0:
320,192,12075,1,0,0:0:0:0:
448,192,12150,1,2,0:0:0:0:
320,192,12225,1,0,0:0:0:0:
192,192,12300,1,2,0:0:0:0:
64,192,12375,1,0,0:0:0:0:
192,192,12450,1,2,0:0:0:0:
320,192,12525,1,0,0:0:0:0:
448,192,12600,1,2,0:0:0:0:
320,192,12675,1,0,0:0:0:0:
192,192,12750,1,2,0:0:0:0:
64,192,12825,1,0,0:0:0:0:
192,192,12900,1,2,0:0:0:0:
320,192,12975,1,0,0:0:0:0:
448,192,13050,1,2,0:0:0:0:
320,192,13125,1,0,0:0:0:0:
192,192,13200,1,2,0:0:0:0:
64,192,13250,1,0,0:0:0:0:
192,192,13300,1,0,0:0:0:0:
320,192,13350,1,2,0:0:0:0:
448,192,13400,1,0,0:0:0:0:
320,192,13450,1,0,0:0:0:0:
192,192,13500,1,2,0:0:0:0:
64,192,13550,1,0,0:0:0:0:
192,192,13600,1,0,0:0:0:0:
320,192,13650,1,2,0:0:0:0:
448,192,13700,1,0,0:0:0:0:
320,192,13750,1,0,0:0:0:0:
192,192,13800,1,2,0:0:0:0:
64,192,13850,1,0,0:0:0:0:
192,192,13900,1,0,0:0:0:0:
320,192,13950,1,2,0:0:0:0:
448,192,14000,1,0,0:0:0:0:
320,192,14050,1,0,0:0:0:0:
192,192,14100,1,2,0:0:0:0:
64,192,14137,1,2,0:0:0:0:
192,192,14175,1,2,0:0:0:0:
320,192,14212,1,0,0:0:0:0:
448,192,14250,1,0,0:0:0:0:
320,192,14287,1,0,0:0:0:0:
192,192,14325,1,0,0:0:0:0:
64,192,14362,1,0,0:0:0:0:
192,192,14400,1,0,0:0:0:0:
320,192,14400,1,2,0:0:0:0:
448,192,14475,1,0,0:0:0:0:
320,192,14550,1,2,0:0:0:0:
192,192,14550,1,0,0:0:0:0:
192,192,14700,1,2,0:0:0:0:
320,192,14700,1,0,0:0:0:0:
64,192,14775,1,0,0:0:0:0:
320,192,14850,1,2,0:0:0:0:
192,192,14850,1,0,0:0:0:0:
448,192,15000,1,2,0:0:0:0:
192,192,15000,1,0,0:0:0:0:
64,192,15075,1,0,0:0:0:0:
320,192,15075,1,2,0:0:0:0:
448,192,15150,1,2,0:0:0:0:
192,192,15150,1,0,0:0:0:0:
320,192,15225,1,2,0:0:0:0:
64,192,15225,1,0,0:0:0:0:
192,192,15300,1,8,0:0:0:0:
448,192,15300,1,2,0:0:0:0:
64,192,15600,1,0,0:0:0:0:
448,192,15600,1,2,0:0:0:0:
320,192,15675,1,0,0:0:0:0:
192,192,15675,1,0,0:0:0:0:
64,192,15750,1,0,0:0:0:0:
448,192,15750,1,0,0:0:0:0:
320,192,15825,1,0,0:0:0:0:
192,192,15825,1,0,0:0:0:0:
64,192,15900,1,0,0:0:0:0:
448,192,15900,1,8,0:0:0:0:
192,192,15975,1,0,0:0:0:0:
320,192,16050,1,0,0:0:0:0:
448,192,16125,1,0,0:0:0:0:
192,192,16200,1,2,0:0:0:0:
64,192,16200,1,0,0:0:0:0:
320,192,16275,1,0,0:0:0:0:
192,192,16350,1,8,0:0:0:0:
64,192,16350,1,0,0:0:0:0:
448,192,16425,1,0,0:0:0:0:
320,192,16500,1,8,0:0:0:0:
192,192,16500,1,0,0:0:0:0:
64,192,16575,1,0,0:0:0:0:
320,192,16650,1,8,0:0:0:0:
448,192,16650,1,0,0:0:0:0:
192,192,16725,1,0,0:0:0:0:
64,192,16800,1,0,0:0:0:0:
448,192,16800,1,8,0:0:0:0:
320,192,16875,1,0,0:0:0:0:
192,192,16950,1,0,0:0:0:0:
448,192,16950,1,0,0:0:0:0:
64,192,17025,1,0,0:0:0:0:
448,192,17100,1,0,0:0:0:0:
320,192,17100,1,8,0:0:0:0:
192,192,17100,1,0,0:0:0:0:
64,192,17175,1,0,0:0:0:0:
448,192,17250,1,0,0:0:0:0:
320,192,17250,1,0,0:0:0:0:
192,192,17250,1,0,0:0:0:0:
64,192,17325,1,0,0:0:0:0:
192,192,17400,1,0,0:0:0:0:
320,192,17400,1,8,0:0:0:0:
448,192,17475,1,0,0:0:0:0:
320,192,17550,1,8,0:0:0:0:
192,192,17550,1,0,0:0:0:0:
448,192,17625,1,0,0:0:0:0:
320,192,17700,1,8,0:0:0:0:
192,192,17700,1,0,0:0:0:0:
64,192,17775,1,0,0:0:0:0:
192,192,17850,1,8,0:0:0:0:
320,192,17850,1,0,0:0:0:0:
448,192,17850,1,0,0:0:0:0:
320,192,18000,1,8,0:0:0:0:
192,192,18000,1,0,0:0:0:0:
64,192,18000,1,0,0:0:0:0:
448,192,18000,1,0,0:0:0:0:
448,192,18300,1,0,0:0:0:0:
320,192,18300,1,2,0:0:0:0:
192,192,18300,1,2,0:0:0:0:
64,192,18300,1,0,0:0:0:0:
448,192,18600,1,0,0:0:0:0:
320,192,18600,1,2,0:0:0:0:
192,192,18600,1,2,0:0:0:0:
64,192,18600,1,0,0:0:0:0:
448,192,18900,1,0,0:0:0:0:
320,192,18900,1,2,0:0:0:0:
192,192,18900,1,2,0:0:0:0:
64,192,18900,1,0,0:0:0:0:
64,192,19050,1,0,0:0:0:0:
192,192,19050,1,2,0:0:0:0:
320,192,19050,1,2,0:0:0:0:
448,192,19050,1,0,0:0:0:0:
448,192,19200,1,8,0:0:0:0:
320,192,19200,1,2,0:0:0:0:
192,192,19200,1,2,0:0:0:0:
64,192,19200,1,8,0:0:0:0:
320,192,19500,1,2,0:0:0:0:
192,192,19500,1,0,0:0:0:0:
64,192,19500,1,0,0:0:0:0:
448,192,19500,1,8,0:0:0:0:
448,192,19800,1,2,0:0:0:0:
320,192,19800,1,8,0:0:0:0:
64,192,19800,1,0,0:0:0:0:
192,192,19800,1,0,0:0:0:0:
192,192,19950,1,8,0:0:0:0:
320,192,19950,1,2,0:0:0:0:
448,192,20025,1,0,0:0:0:0:
448,192,20100,1,8,0:0:0:0:
320,192,20100,1,2,0:0:0:0:
192,192,20100,1,0,0:0:0:0:
64,192,20100,1,0,0:0:0:0:
64,192,20250,1,0,0:0:0:0:
192,192,20250,1,0,0:0:0:0:
320,192,20250,1,0,0:0:0:0:
448,192,20250,1,0,0:0:0:0:
64,192,20400,1,0,0:0:0:0:
192,192,20400,1,0,0:0:0:0:
320,192,20400,1,8,0:0:0:0:
448,192,20400,1,0,0:0:0:0:
448,192,20700,1,0,0:0:0:0:
320,192,20700,1,8,0:0:0:0:
64,192,20700,1,0,0:0:0:0:
192,192,20700,1,0,0:0:0:0:
448,192,21000,1,0,0:0:0:0:
320,192,21000,1,0,0:0:0:0:
192,192,21000,1,0,0:0:0:0:
64,192,21000,1,0,0:0:0:0:
64,192,21075,1,0,0:0:0:0:
320,192,21150,1,0,0:0:0:0:
192,192,21150,1,0,0:0:0:0:
64,192,21300,1,0,0:0:0:0:
192,192,21300,1,0,0:0:0:0:
448,192,21300,1,0,0:0:0:0:
320,192,21300,1,0,0:0:0:0:
192,192,21450,1,0,0:0:0:0:
320,192,21450,1,0,0:0:0:0:
448,192,21600,1,0,0:0:0:0:
320,192,21600,1,0,0:0:0:0:
192,192,21600,1,0,0:0:0:0:
64,192,21600,1,0,0:0:0:0:
192,192,21675,1,0,0:0:0:0:
320,192,21750,1,0,0:0:0:0:
192,192,21825,1,0,0:0:0:0:
320,192,21900,1,0,0:0:0:0:
448,192,21900,1,0,0:0:0:0:
192,192,21975,1,0,0:0:0:0:
320,192,22050,1,0,0:0:0:0:
192,192,22125,1,0,0:0:0:0:
320,192,22200,1,0,0:0:0:0:
448,192,22200,1,0,0:0:0:0:
192,192,22275,1,0,0:0:0:0:
320,192,22350,1,0,0:0:0:0:
64,192,22350,1,0,0:0:0:0:
448,192,22425,1,0,0:0:0:0:
320,192,22500,1,0,0:0:0:0:
64,192,22500,1,0,0:0:0:0:
192,192,22575,1,0,0:0:0:0:
64,192,22650,1,0,0:0:0:0:
320,192,22650,1,0,0:0:0:0:
448,192,22650,1,0,0:0:0:0:
192,192,22725,1,0,0:0:0:0:
320,192,22800,1,0,0:0:0:0:
64,192,22800,1,0,0:0:0:0:
448,192,22875,1,0,0:0:0:0:
320,192,22950,1,0,0:0:0:0:
192,192,23025,1,0,0:0:0:0:
64,192,23100,1,0,0:0:0:0:
448,192,23100,1,0,0:0:0:0:
192,192,23175,1,0,0:0:0:0:
320,192,23250,1,0,0:0:0:0:
448,192,23325,1,0,0:0:0:0:
320,192,23400,1,0,0:0:0:0:
64,192,23400,1,0,0:0:0:0:
192,192,23475,1,0,0:0:0:0:
448,192,23475,1,0,0:0:0:0:
64,192,23550,1,0,0:0:0:0:
320,192,23550,1,0,0:0:0:0:
192,192,23625,1,0,0:0:0:0:
64,192,23700,1,0,0:0:0:0:
192,192,23737,1,0,0:0:0:0:
320,192,23775,1,0,0:0:0:0:
448,192,23812,1,0,0:0:0:0:
320,192,23850,1,0,0:0:0:0:
192,192,23887,1,0,0:0:0:0:
64,192,23925,1,0,0:0:0:0:
192,192,23962,1,0,0:0:0:0:
320,192,24000,1,0,0:0:0:0:
448,192,24000,1,0,0:0:0:0:
192,192,24075,1,0,0:0:0:0:
64,192,24075,1,0,0:0:0:0:
320,192,24150,1,0,0:0:0:0:
448,192,24150,1,0,0:0:0:0:
64,192,24225,1,0,0:0:0:0:
448,192,24300,1,0,0:0:0:0:
320,192,24300,1,0,0:0:0:0:
192,192,24375,1,0,0:0:0:0:
64,192,24375,1,0,0:0:0:0:
320,192,24450,1,0,0:0:0:0:
448,192,24450,1,0,0:0:0:0:
192,192,24525,1,0,0:0:0:0:
448,192,24600,1,0,0:0:0:0:
64,192,24600,1,0,0:0:0:0:
192,192,24675,1,0,0:0:0:0:
320,192,24750,1,0,0:0:0:0:
448,192,24825,1,0,0:0:0:0:
320,192,24900,1,0,0:0:0:0:
192,192,24900,1,0,0:0:0:0:
64,192,24975,1,0,0:0:0:0:
448,192,24975,1,0,0:0:0:0:
320,192,25050,1,0,0:0:0:0:
192,192,25050,1,0,0:0:0:0:
448,192,25125,1,0,0:0:0:0:
64,192,25200,1,0,0:0:0:0:
192,192,25200,1,0,0:0:0:0:
320,192,25275,1,0,0:0:0:0:
192,192,25350,1,0,0:0:0:0:
320,192,25425,1,0,0:0:0:0:
448,192,25500,1,0,0:0:0:0:
192,192,25500,1,0,0:0:0:0:
64,192,25575,1,0,0:0:0:0:
320,192,25650,1,0,0:0:0:0:
192,192,25725,1,0,0:0:0:0:
320,192,25800,1,0,0:0:0:0:
448,192,25800,1,0,0:0:0:0:
192,192,25875,1,0,0:0:0:0:
64,192,25950,1,0,0:0:0:0:
320,192,25950,1,0,0:0:0:0:
192,192,26025,1,0,0:0:0:0:
448,192,26100,1,0,0:0:0:0:
320,192,26100,1,0,0:0:0:0:
192,192,26175,1,0,0:0:0:0:
64,192,26250,1,0,0:0:0:0:
320,192,26250,1,0,0:0:0:0:
192,192,26325,1,0,0:0:0:0:
448,192,26400,1,0,0:0:0:0:
320,192,26400,1,0,0:0:0:0:
192,192,26475,1,0,0:0:0:0:
64,192,26550,1,0,0:0:0:0:
448,192,26550,1,0,0:0:0:0:
192,192,26625,1,0,0:0:0:0:
320,192,26700,1,0,0:0:0:0:
448,192,26700,1,0,0:0:0:0:
192,192,26775,1,0,0:0:0:0:
320,192,26850,1,0,0:0:0:0:
192,192,26925,1,0,0:0:0:0:
64,192,27000,1,0,0:0:0:0:
320,192,27000,1,0,0:0:0:0:
448,192,27075,1,0,0:0:0:0:
320,192,27150,1,0,0:0:0:0:
192,192,27225,1,0,0:0:0:0:
64,192,27300,1,0,0:0:0:0:
448,192,27300,1,0,0:0:0:0:
320,192,27375,1,0,0:0:0:0:
64,192,27450,1,0,0:0:0:0:
448,192,27450,1,0,0:0:0:0:
320,192,27525,1,0,0:0:0:0:
64,192,27600,1,0,0:0:0:0:
448,192,27600,1,0,0:0:0:0:
192,192,27675,1,0,0:0:0:0:
448,192,27750,1,0,0:0:0:0:
320,192,27750,1,0,0:0:0:0:
192,192,27825,1,0,0:0:0:0:
64,192,27900,1,0,0:0:0:0:
320,192,27975,1,0,0:0:0:0:
448,192,28050,1,0,0:0:0:0:
192,192,28050,1,0,0:0:0:0:
320,192,28125,1,0,0:0:0:0:
192,192,28200,1,0,0:0:0:0:
448,192,28200,1,0,0:0:0:0:
64,192,28275,1,0,0:0:0:0:
192,192,28350,1,0,0:0:0:0:
320,192,28425,1,0,0:0:0:0:
448,192,28500,1,0,0:0:0:0:
64,192,28500,1,0,0:0:0:0:
448,192,28650,1,0,0:0:0:0:
64,192,28650,1,0,0:0:0:0:
192,192,28800,1,0,0:0:0:0:
64,192,28800,1,0,0:0:0:0:
320,192,28875,1,0,0:0:0:0:
448,192,28950,1,0,0:0:0:0:
320,192,29025,1,0,0:0:0:0:
192,192,29100,1,0,0:0:0:0:
64,192,29100,1,0,0:0:0:0:
448,192,29175,1,0,0:0:0:0:
320,192,29175,1,0,0:0:0:0:
64,192,29250,1,0,0:0:0:0:
192,192,29250,1,0,0:0:0:0:
448,192,29325,1,0,0:0:0:0:
320,192,29325,1,0,0:0:0:0:
64,192,29400,1,0,0:0:0:0:
192,192,29400,1,0,0:0:0:0:
320,192,29475,1,0,0:0:0:0:
448,192,29550,1,0,0:0:0:0:
192,192,29550,1,0,0:0:0:0:
320,192,29625,1,0,0:0:0:0:
64,192,29700,1,0,0:0:0:0:
448,192,29700,1,0,0:0:0:0:
320,192,29775,1,0,0:0:0:0:
448,192,29850,1,0,0:0:0:0:
320,192,29925,1,0,0:0:0:0:
448,192,30000,1,0,0:0:0:0:
64,192,30000,1,0,0:0:0:0:
192,192,30000,1,0,0:0:0:0:
448,192,30150,1,0,0:0:0:0:
320,192,30150,1,0,0:0:0:0:
64,192,30300,1,0,0:0:0:0:
192,192,30300,1,0,0:0:0:0:
448,192,30300,1,0,0:0:0:0:
320,192,30375,1,0,0:0:0:0:
448,192,30450,1,0,0:0:0:0:
320,192,30525,1,0,0:0:0:0:
64,192,30600,1,0,0:0:0:0:
192,192,30600,1,0,0:0:0:0:
448,192,30600,1,0,0:0:0:0:
320,192,30750,1,0,0:0:0:0:
64,192,30750,1,0,0:0:0:0:
448,192,30900,1,0,0:0:0:0:
192,192,30900,1,0,0:0:0:0:
64,192,30975,1,0,0:0:0:0:
192,192,31050,1,0,0:0:0:0:
320,192,31125,1,0,0:0:0:0:
448,192,31200,1,0,0:0:0:0:
192,192,31200,1,0,0:0:0:0:
64,192,31350,1,0,0:0:0:0:
320,192,31350,1,0,0:0:0:0:
448,192,31500,1,0,0:0:0:0:
192,192,31500,1,0,0:0:0:0:
320,192,31575,1,0,0:0:0:0:
192,192,31650,1,0,0:0:0:0:
448,192,31650,1,0,0:0:0:0:
64,192,31800,1,0,0:0:0:0:
320,192,31800,1,0,0:0:0:0:
448,192,31950,1,0,0:0:0:0:
192,192,31950,1,0,0:0:0:0:
320,192,32100,1,0,0:0:0:0:
64,192,32100,1,0,0:0:0:0:
448,192,32175,1,0,0:0:0:0:
320,192,32250,1,0,0:0:0:0:
64,192,32250,1,0,0:0:0:0:
192,192,32400,1,0,0:0:0:0:
448,192,32400,1,0,0:0:0:0:
448,192,32550,1,0,0:0:0:0:
192,192,32550,1,0,0:0:0:0:
64,192,32700,1,0,0:0:0:0:
192,192,32700,1,0,0:0:0:0:
448,192,32700,1,0,0:0:0:0:
448,192,32850,1,0,0:0:0:0:
320,192,32850,1,0,0:0:0:0:
64,192,32850,1,0,0:0:0:0:
64,192,33000,1,0,0:0:0:0:
192,192,33000,1,0,0:0:0:0:
448,192,33000,1,0,0:0:0:0:
64,192,33150,1,0,0:0:0:0:
448,192,33150,1,0,0:0:0:0:
320,192,33150,1,0,0:0:0:0:
64,192,33300,1,0,0:0:0:0:
448,192,33300,1,0,0:0:0:0:
320,192,33337,1,0,0:0:0:0:
192,192,33375,1,0,0:0:0:0:
64,192,33412,1,0,0:0:0:0:
448,192,33450,1,0,0:0:0:0:
320,192,33450,1,0,0:0:0:0:
320,192,33600,1,0,0:0:0:0:
448,192,33600,1,0,0:0:0:0:
192,192,33675,1,0,0:0:0:0:
64,192,33750,1,0,0:0:0:0:
192,192,33825,1,0,0:0:0:0:
320,192,33900,1,0,0:0:0:0:
448,192,33900,1,0,0:0:0:0:
192,192,33975,1,0,0:0:0:0:
64,192,33975,1,0,0:0:0:0:
320,192,34050,1,0,0:0:0:0:
448,192,34050,1,0,0:0:0:0:
192,192,34125,1,0,0:0:0:0:
64,192,34200,1,0,0:0:0:0:
320,192,34200,1,0,0:0:0:0:
192,192,34275,1,0,0:0:0:0:
448,192,34275,1,0,0:0:0:0:
320,192,34350,1,0,0:0:0:0:
64,192,34350,1,0,0:0:0:0:
192,192,34425,1,0,0:0:0:0:
448,192,34425,1,0,0:0:0:0:
320,192,34500,1,0,0:0:0:0:
64,192,34500,1,0,0:0:0:0:
448,192,34575,1,0,0:0:0:0:
320,192,34650,1,0,0:0:0:0:
448,192,34725,1,0,0:0:0:0:
64,192,34800,1,0,0:0:0:0:
320,192,34800,1,0,0:0:0:0:
320,192,34950,1,0,0:0:0:0:
64,192,34950,1,0,0:0:0:0:
320,192,35100,1,0,0:0:0:0:
64,192,35100,1,0,0:0:0:0:
192,192,35175,1,0,0:0:0:0:
320,192,35250,1,0,0:0:0:0:
448,192,35325,1,0,0:0:0:0:
320,192,35400,1,0,0:0:0:0:
64,192,35400,1,0,0:0:0:0:
192,192,35475,1,0,0:0:0:0:
64,192,35550,1,0,0:0:0:0:
320,192,35550,1,0,0:0:0:0:
192,192,35625,1,0,0:0:0:0:
64,192,35700,1,0,0:0:0:0:
320,192,35700,1,0,0:0:0:0:
448,192,35700,1,0,0:0:0:0:
192,192,35775,1,0,0:0:0:0:
64,192,35850,1,0,0:0:0:0:
448,192,35850,1,0,0:0:0:0:
320,192,35850,1,0,0:0:0:0:
192,192,35925,1,0,0:0:0:0:
64,192,36000,1,0,0:0:0:0:
320,192,36000,1,0,0:0:0:0:
448,192,36000,1,0,0:0:0:0:
192,192,36075,1,0,0:0:0:0:
448,192,36150,1,0,0:0:0:0:
64,192,36150,1,0,0:0:0:0:
320,192,36225,1,0,0:0:0:0:
192,192,36225,1,0,0:0:0:0:
64,192,36300,1,0,0:0:0:0:
448,192,36300,1,0,0:0:0:0:
192,192,36375,1,0,0:0:0:0:
320,192,36450,1,0,0:0:0:0:
192,192,36525,1,0,0:0:0:0:
64,192,36600,1,0,0:0:0:0:
192,192,36600,1,0,0:0:0:0:
320,192,36600,1,0,0:0:0:0:
448,192,36600,1,0,0:0:0:0:
448,192,36675,1,0,0:0:0:0:
320,192,36750,1,0,0:0:0:0:
192,192,36825,1,0,0:0:0:0:
64,192,36900,1,0,0:0:0:0:
320,192,36900,1,0,0:0:0:0:
448,192,36900,1,0,0:0:0:0:
192,192,36975,1,0,0:0:0:0:
448,192,37050,1,0,0:0:0:0:
448,192,37200,1,0,0:0:0:0:
64,192,37200,1,0,0:0:0:0:
192,192,37200,1,0,0:0:0:0:
320,192,37200,1,0,0:0:0:0:
320,192,37500,1,0,0:0:0:0:
448,192,37500,1,0,0:0:0:0:
192,192,37500,1,0,0:0:0:0:
64,192,37500,1,0,0:0:0:0:
64,192,37800,1,0,0:0:0:0:
192,192,37800,1,0,0:0:0:0:
320,192,37800,1,0,0:0:0:0:
448,192,37800,1,0,0:0:0:0:
448,192,38100,1,0,0:0:0:0:
64,192,38100,1,0,0:0:0:0:
192,192,38100,1,0,0:0:0:0:
320,192,38100,1,0,0:0:0:0:
320,192,38325,1,0,0:0:0:0:
448,192,38325,1,0,0:0:0:0:
448,192,38400,1,0,0:0:0:0:
320,192,38400,1,0,0:0:0:0:
448,192,38625,1,0,0:0:0:0:
320,192,38625,1,0,0:0:0:0:
448,192,38700,1,0,0:0:0:0:
320,192,38700,1,0,0:0:0:0:
64,192,38925,1,0,0:0:0:0:
192,192,38925,1,0,0:0:0:0:
192,192,39000,1,0,0:0:0:0:
64,192,39000,1,0,0:0:0:0:
320,192,39200,1,0,0:0:0:0:
448,192,39200,1,0,0:0:0:0:
448,192,39300,1,0,0:0:0:0:
320,192,39300,1,0,0:0:0:0:
448,192,39400,1,0,0:0:0:0:
320,192,39400,1,0,0:0:0:0:
320,192,39500,1,0,0:0:0:0:
448,192,39500,1,0,0:0:0:0:
448,192,39600,1,0,0:0:0:0:
320,192,39600,1,0,0:0:0:0:
64,192,39825,1,0,0:0:0:0:
192,192,39825,1,0,0:0:0:0:
64,192,39900,1,0,0:0:0:0:
192,192,39900,1,0,0:0:0:0:
448,192,40125,1,0,0:0:0:0:
320,192,40125,1,0,0:0:0:0:
320,192,40200,1,0,0:0:0:0:
448,192,40200,1,0,0:0:0:0:
192,192,40400,1,0,0:0:0:0:
64,192,40400,1,0,0:0:0:0:
64,192,40500,1,0,0:0:0:0:
192,192,40500,1,0,0:0:0:0:
192,192,40600,1,0,0:0:0:0:
64,192,40600,1,0,0:0:0:0:
64,192,40700,1,0,0:0:0:0:
192,192,40700,1,0,0:0:0:0:
192,192,40800,1,0,0:0:0:0:
64,192,40800,1,0,0:0:0:0:
320,192,40850,1,0,0:0:0:0:
448,192,40850,1,0,0:0:0:0:
192,192,40900,1,0,0:0:0:0:
64,192,40900,1,0,0:0:0:0:
320,192,40950,1,0,0:0:0:0:
448,192,40950,1,0,0:0:0:0:
192,192,41000,1,0,0:0:0:0:
64,192,41000,1,0,0:0:0:0:
320,192,41050,1,0,0:0:0:0:
448,192,41050,1,0,0:0:0:0:
64,192,41100,1,0,0:0:0:0:
192,192,41100,1,0,0:0:0:0:
320,192,41150,1,0,0:0:0:0:
448,192,41150,1,0,0:0:0:0:
192,192,41200,1,0,0:0:0:0:
64,192,41200,1,0,0:0:0:0:
320,192,41250,1,0,0:0:0:0:
448,192,41250,1,0,0:0:0:0:
192,192,41300,1,0,0:0:0:0:
64,192,41300,1,0,0:0:0:0:
320,192,41350,1,0,0:0:0:0:
448,192,41350,1,0,0:0:0:0:
192,192,41400,1,0,0:0:0:0:
64,192,41400,1,0,0:0:0:0:
320,192,41450,1,0,0:0:0:0:
448,192,41450,1,0,0:0:0:0:
192,192,41500,1,0,0:0:0:0:
64,192,41500,1,0,0:0:0:0:
448,192,41550,1,0,0:0:0:0:
320,192,41550,1,0,0:0:0:0:
64,192,41600,1,0,0:0:0:0:
192,192,41600,1,0,0:0:0:0:
320,192,41650,1,0,0:0:0:0:
448,192,41650,1,0,0:0:0:0:
192,192,41700,1,0,0:0:0:0:
64,192,41700,1,0,0:0:0:0:
320,192,41750,1,0,0:0:0:0:
448,192,41750,1,0,0:0:0:0:
192,192,41800,1,0,0:0:0:0:
64,192,41800,1,0,0:0:0:0:
320,192,41850,1,0,0:0:0:0:
448,192,41850,1,0,0:0:0:0:
192,192,41900,1,0,0:0:0:0:
64,192,41900,1,0,0:0:0:0:
320,192,41950,1,0,0:0:0:0:
448,192,41950,1,0,0:0:0:0:
64,192,42000,1,0,0:0:0:0:
192,192,42000,1,0,0:0:0:0:
