osu file format v14

[General]
AudioFilename: The Living Tombstone - Die in a Fire.mp3
AudioLeadIn: 0
PreviewTime: 37443
Countdown: 0
SampleSet: Soft
StackLeniency: 0.7
Mode: 3
LetterboxInBreaks: 0
SpecialStyle: 0
WidescreenStoryboard: 0

[Editor]
DistanceSpacing: 0.6
BeatDivisor: 4
GridSize: 32
TimelineZoom: 1.1

[Metadata]
Title:Die In a Fire (Feat. EileMonty and Orko)
TitleUnicode:Die In a Fire (Feat. EileMonty and Orko)
Artist:The Living Tombstone
ArtistUnicode:The Living Tombstone
Creator:AnatOWJIya
Version:4K HD
Source:
Tags:jarrymouse LucaSA4 bonnie the bunny chica the chicken freddy the bear foxy the pirate Eeneehaww30PH Lumael
BeatmapID:693132
BeatmapSetID:307067

[Difficulty]
HPDrainRate:7
CircleSize:4
OverallDifficulty:7
ApproachRate:5
SliderMultiplier:1.4
SliderTickRate:1

[Events]
//Background and Video events
0,0,"BG.jpg",0,0
//Break Periods
//Storyboard Layer 0 (Background)
//Storyboard Layer 1 (Fail)
//Storyboard Layer 2 (Pass)
//Storyboard Layer 3 (Foreground)
//Storyboard Sound Samples

[TimingPoints]
80,545.454545454546,4,2,0,30,1,0
39352,-100,4,2,0,30,0,1
54625,-100,4,2,0,30,0,0
56807,-100,4,2,0,30,0,1
74261,-100,4,2,0,30,0,0
109170,-100,4,2,0,30,0,1
139716,-100,4,2,0,30,0,0
144080,-100,4,2,0,30,0,1
176807,-100,4,2,0,30,0,0

[HitObjects]
320,192,4443,128,0,5534:0:0:0:0:
64,192,4443,1,0,0:0:0:0:
448,192,4716,1,0,0:0:0:0:
192,192,4989,1,0,0:0:0:0:
64,192,5261,1,0,0:0:0:0:
192,192,5398,1,0,0:0:0:0:
448,192,5534,1,0,0:0:0:0:
64,192,5807,1,0,0:0:0:0:
192,192,6080,1,0,0:0:0:0:
320,192,6352,1,0,0:0:0:0:
192,192,6489,1,0,0:0:0:0:
448,192,6625,1,0,0:0:0:0:
64,192,6625,128,0,7716:0:0:0:0:
320,192,6898,1,0,0:0:0:0:
192,192,7170,1,0,0:0:0:0:
320,192,7443,1,0,0:0:0:0:
448,192,7580,1,0,0:0:0:0:
192,192,7716,1,0,0:0:0:0:
320,192,7716,128,0,8807:0:0:0:0:
448,192,7989,1,0,0:0:0:0:
64,192,8261,1,0,0:0:0:0:
192,192,8534,1,0,0:0:0:0:
64,192,8670,1,0,0:0:0:0:
448,192,8807,1,0,0:0:0:0:
192,192,8807,128,0,9898:0:0:0:0:
64,192,9080,1,0,0:0:0:0:
320,192,9352,1,0,0:0:0:0:
448,192,9625,1,0,0:0:0:0:
320,192,9761,1,0,0:0:0:0:
64,192,9898,1,0,0:0:0:0:
320,192,10170,1,0,0:0:0:0:
448,192,10443,1,0,0:0:0:0:
320,192,10716,1,0,0:0:0:0:
192,192,10852,1,0,0:0:0:0:
64,192,10989,1,0,0:0:0:0:
448,192,11261,1,0,0:0:0:0:
192,192,11534,1,0,0:0:0:0:
320,192,11807,1,0,0:0:0:0:
192,192,11943,1,0,0:0:0:0:
64,192,12080,1,0,0:0:0:0:
448,192,12352,1,0,0:0:0:0:
320,192,12625,1,0,0:0:0:0:
192,192,12898,1,0,0:0:0:0:
320,192,13034,1,0,0:0:0:0:
64,192,13170,1,0,0:0:0:0:
448,192,13170,128,0,14261:0:0:0:0:
320,192,13443,1,0,0:0:0:0:
64,192,13716,1,0,0:0:0:0:
320,192,13989,1,0,0:0:0:0:
64,192,14125,1,0,0:0:0:0:
192,192,14261,1,0,0:0:0:0:
64,192,14534,1,0,0:0:0:0:
448,192,14807,1,0,0:0:0:0:
320,192,15080,1,0,0:0:0:0:
192,192,15216,1,0,0:0:0:0:
320,192,15352,128,0,16443:0:0:0:0:
64,192,15352,1,0,0:0:0:0:
192,192,15625,1,0,0:0:0:0:
448,192,15898,1,0,0:0:0:0:
64,192,16170,1,0,0:0:0:0:
448,192,16307,1,0,0:0:0:0:
64,192,16443,128,0,16989:0:0:0:0:
192,192,16443,1,0,0:0:0:0:
320,192,16716,1,0,0:0:0:0:
448,192,16989,128,0,17534:0:0:0:0:
192,192,16989,1,0,0:0:0:0:
320,192,17261,1,0,0:0:0:0:
64,192,17398,1,0,0:0:0:0:
192,192,17534,128,0,21352:0:0:0:0:
320,192,17534,1,0,0:0:0:0:
64,192,17807,1,0,0:0:0:0:
448,192,18080,1,0,0:0:0:0:
320,192,18352,1,0,0:0:0:0:
448,192,18489,1,0,0:0:0:0:
64,192,18625,1,0,0:0:0:0:
448,192,18898,1,0,0:0:0:0:
64,192,19170,1,0,0:0:0:0:
448,192,19443,1,0,0:0:0:0:
320,192,19580,1,0,0:0:0:0:
64,192,19716,1,0,0:0:0:0:
320,192,19989,1,0,0:0:0:0:
448,192,20261,1,0,0:0:0:0:
64,192,20534,1,0,0:0:0:0:
320,192,20670,1,0,0:0:0:0:
448,192,20807,1,0,0:0:0:0:
320,192,21080,1,0,0:0:0:0:
64,192,21352,1,0,0:0:0:0:
320,192,21625,1,0,0:0:0:0:
448,192,21761,1,0,0:0:0:0:
192,192,21761,1,4,0:0:0:0:
64,192,21898,1,8,0:0:0:0:
320,192,21898,128,0,24080:0:0:0:0:
448,192,22170,1,0,0:0:0:0:
64,192,22443,1,0,0:0:0:0:
192,192,22443,1,4,0:0:0:0:
448,192,22716,1,0,0:0:0:0:
64,192,22852,1,0,0:0:0:0:
192,192,22989,1,0,0:0:0:0:
64,192,23261,1,0,0:0:0:0:
448,192,23534,1,0,0:0:0:0:
192,192,23534,1,4,0:0:0:0:
64,192,23807,1,0,0:0:0:0:
192,192,23943,1,0,0:0:0:0:
448,192,24080,128,0,25170:0:0:0:0:
64,192,24080,1,0,0:0:0:0:
192,192,24352,1,0,0:0:0:0:
320,192,24625,1,4,0:0:0:0:
64,192,24625,1,0,0:0:0:0:
320,192,24898,1,0,0:0:0:0:
192,192,25034,1,0,0:0:0:0:
320,192,25170,128,0,26261:0:0:0:0:
64,192,25170,1,0,0:0:0:0:
448,192,25443,1,0,0:0:0:0:
192,192,25716,1,4,0:0:0:0:
64,192,25716,1,0,0:0:0:0:
448,192,25989,1,0,0:0:0:0:
192,192,26125,1,0,0:0:0:0:
64,192,26261,128,0,30080:0:0:0:0:
448,192,26261,1,0,0:0:0:0:
320,192,26534,1,0,0:0:0:0:
448,192,26807,1,0,0:0:0:0:
192,192,26807,1,4,0:0:0:0:
320,192,27080,1,0,0:0:0:0:
192,192,27216,1,0,0:0:0:0:
448,192,27352,1,0,0:0:0:0:
320,192,27625,1,0,0:0:0:0:
192,192,27898,1,4,0:0:0:0:
448,192,27898,1,0,0:0:0:0:
320,192,28170,1,0,0:0:0:0:
448,192,28307,1,0,0:0:0:0:
192,192,28443,1,0,0:0:0:0:
448,192,28716,1,0,0:0:0:0:
320,192,28989,1,4,0:0:0:0:
192,192,28989,1,0,0:0:0:0:
448,192,29261,1,0,0:0:0:0:
320,192,29398,1,0,0:0:0:0:
192,192,29534,1,0,0:0:0:0:
448,192,29534,1,0,0:0:0:0:
448,192,29807,1,0,0:0:0:0:
192,192,30080,1,0,0:0:0:0:
320,192,30080,1,4,0:0:0:0:
320,192,30352,1,0,0:0:0:0:
448,192,30489,1,0,0:0:0:0:
192,192,30489,1,0,0:0:0:0:
64,192,30625,1,0,0:0:0:0:
320,192,30625,128,0,32807:0:0:0:0:
448,192,30898,1,0,0:0:0:0:
192,192,31170,1,4,0:0:0:0:
64,192,31170,1,0,0:0:0:0:
448,192,31443,1,0,0:0:0:0:
192,192,31580,1,0,0:0:0:0:
64,192,31716,1,0,0:0:0:0:
448,192,31989,1,0,0:0:0:0:
192,192,32261,1,4,0:0:0:0:
64,192,32261,1,0,0:0:0:0:
64,192,32534,1,0,0:0:0:0:
192,192,32670,1,0,0:0:0:0:
448,192,32807,1,0,0:0:0:0:
64,192,32807,128,0,33898:0:0:0:0:
192,192,33080,1,0,0:0:0:0:
320,192,33352,1,4,0:0:0:0:
448,192,33352,1,0,0:0:0:0:
320,192,33625,1,0,0:0:0:0:
192,192,33898,1,0,0:0:0:0:
448,192,33898,1,0,0:0:0:0:
320,192,34307,1,4,0:0:0:0:
448,192,34307,1,8,0:0:0:0:
64,192,34716,1,4,0:0:0:0:
192,192,34716,1,8,0:0:0:0:
320,192,34989,1,0,0:0:0:0:
192,192,34989,1,0,0:0:0:0:
64,192,35261,1,2,0:0:0:0:
192,192,35534,1,2,0:0:0:0:
320,192,35807,1,2,0:0:0:0:
448,192,36080,1,2,0:0:0:0:
320,192,36352,1,2,0:0:0:0:
64,192,36625,1,4,0:0:0:0:
192,192,36761,1,4,0:0:0:0:
448,192,36898,1,4,0:0:0:0:
320,192,37034,1,4,0:0:0:0:
192,192,37170,1,12,0:0:0:0:
64,192,39352,128,0,39898:0:0:0:0:
192,192,39352,1,0,0:0:0:0:
320,192,39898,1,4,0:0:0:0:
448,192,39898,1,0,0:0:0:0:
320,192,40443,128,0,40989:0:0:0:0:
448,192,40443,1,0,0:0:0:0:
64,192,40989,1,0,0:0:0:0:
192,192,40989,1,4,0:0:0:0:
192,192,41534,128,0,42080:0:0:0:0:
448,192,41534,1,0,0:0:0:0:
320,192,41807,128,0,42080:0:0:0:0:
64,192,42080,1,0,0:0:0:0:
448,192,42080,1,4,0:0:0:0:
448,192,42625,128,0,43170:0:0:0:0:
320,192,42625,1,0,0:0:0:0:
64,192,43170,1,0,0:0:0:0:
192,192,43170,1,4,0:0:0:0:
320,192,43716,128,0,44261:0:0:0:0:
448,192,43716,1,0,0:0:0:0:
64,192,43989,128,0,44261:0:0:0:0:
192,192,44261,1,4,0:0:0:0:
448,192,44261,1,0,0:0:0:0:
192,192,44807,128,0,45352:0:0:0:0:
320,192,44807,1,0,0:0:0:0:
448,192,45352,1,0,0:0:0:0:
64,192,45352,1,4,0:0:0:0:
64,192,45898,128,0,46443:0:0:0:0:
320,192,45898,1,0,0:0:0:0:
320,192,46170,128,0,46443:0:0:0:0:
192,192,46443,1,4,0:0:0:0:
448,192,46443,1,0,0:0:0:0:
448,192,46989,128,0,47534:0:0:0:0:
320,192,46989,1,0,0:0:0:0:
320,192,47534,128,0,47807:0:0:0:0:
64,192,47534,1,4,0:0:0:0:
192,192,47807,128,0,48080:0:0:0:0:
64,192,48080,128,0,48625:0:0:0:0:
448,192,48080,1,0,0:0:0:0:
320,192,48625,1,4,0:0:0:0:
192,192,48625,1,0,0:0:0:0:
448,192,48625,128,0,49170:0:0:0:0:
192,192,49170,128,0,49716:0:0:0:0:
64,192,49170,1,0,0:0:0:0:
448,192,49716,1,4,0:0:0:0:
320,192,49852,1,2,0:0:0:0:
64,192,49989,1,2,0:0:0:0:
192,192,50125,1,2,0:0:0:0:
448,192,50261,1,0,0:0:0:0:
320,192,50261,128,2,50807:0:0:0:0:
64,192,50807,1,0,0:0:0:0:
192,192,50807,1,4,0:0:0:0:
448,192,50807,128,0,51352:0:0:0:0:
320,192,51080,128,0,51352:0:0:0:0:
64,192,51352,128,0,51898:0:0:0:0:
192,192,51352,1,0,0:0:0:0:
320,192,51898,1,4,0:0:0:0:
448,192,51898,1,2,0:0:0:0:
192,192,52034,1,2,0:0:0:0:
64,192,52170,1,2,0:0:0:0:
448,192,52307,1,2,0:0:0:0:
320,192,52443,1,0,0:0:0:0:
192,192,52443,128,2,54625:0:0:0:0:
448,192,52989,1,0,0:0:0:0:
448,192,53534,1,12,0:0:0:0:
64,192,53534,1,0,0:0:0:0:
320,192,54080,1,0,0:0:0:0:
320,192,54625,128,0,55716:0:0:0:0:
64,192,54625,1,14,0:0:0:0:
448,192,55716,128,0,56807:0:0:0:0:
320,192,56261,128,0,56807:0:0:0:0:
64,192,56807,128,0,65534:0:0:0:0:
192,192,56807,1,0,0:0:0:0:
448,192,57080,1,0,0:0:0:0:
192,192,57352,1,4,0:0:0:0:
320,192,57352,1,0,0:0:0:0:
448,192,57625,1,0,0:0:0:0:
320,192,57761,1,0,0:0:0:0:
192,192,57898,1,0,0:0:0:0:
448,192,58170,1,0,0:0:0:0:
192,192,58443,1,4,0:0:0:0:
320,192,58443,1,0,0:0:0:0:
448,192,58716,1,0,0:0:0:0:
192,192,58989,1,0,0:0:0:0:
448,192,59261,1,0,0:0:0:0:
192,192,59534,1,0,0:0:0:0:
320,192,59534,1,4,0:0:0:0:
448,192,59807,1,0,0:0:0:0:
320,192,59943,1,0,0:0:0:0:
192,192,60080,1,0,0:0:0:0:
448,192,60352,1,0,0:0:0:0:
192,192,60625,1,0,0:0:0:0:
320,192,60625,1,4,0:0:0:0:
448,192,60898,1,0,0:0:0:0:
320,192,61170,1,0,0:0:0:0:
192,192,61443,1,0,0:0:0:0:
192,192,61716,1,0,0:0:0:0:
320,192,61716,1,4,0:0:0:0:
192,192,61989,1,0,0:0:0:0:
448,192,62125,1,0,0:0:0:0:
320,192,62261,1,0,0:0:0:0:
448,192,62534,1,0,0:0:0:0:
192,192,62807,1,0,0:0:0:0:
320,192,62807,1,4,0:0:0:0:
448,192,63080,1,0,0:0:0:0:
192,192,63352,1,0,0:0:0:0:
320,192,63625,1,0,0:0:0:0:
192,192,63898,1,0,0:0:0:0:
320,192,63898,1,4,0:0:0:0:
448,192,64170,1,0,0:0:0:0:
320,192,64307,1,0,0:0:0:0:
192,192,64443,1,0,0:0:0:0:
448,192,64716,1,0,0:0:0:0:
192,192,64989,1,0,0:0:0:0:
320,192,64989,1,4,0:0:0:0:
320,192,65261,1,0,0:0:0:0:
448,192,65534,128,0,74261:0:0:0:0:
192,192,65534,1,0,0:0:0:0:
64,192,65807,1,0,0:0:0:0:
192,192,66080,1,4,0:0:0:0:
320,192,66080,1,0,0:0:0:0:
64,192,66352,1,0,0:0:0:0:
192,192,66489,1,0,0:0:0:0:
320,192,66625,1,0,0:0:0:0:
64,192,66898,1,0,0:0:0:0:
192,192,67170,1,0,0:0:0:0:
320,192,67170,1,4,0:0:0:0:
64,192,67443,1,0,0:0:0:0:
192,192,67716,1,0,0:0:0:0:
320,192,67989,1,0,0:0:0:0:
192,192,68261,1,4,0:0:0:0:
320,192,68261,1,0,0:0:0:0:
320,192,68534,1,0,0:0:0:0:
64,192,68670,1,0,0:0:0:0:
192,192,68807,1,0,0:0:0:0:
64,192,69080,1,0,0:0:0:0:
192,192,69352,1,4,0:0:0:0:
320,192,69352,1,0,0:0:0:0:
64,192,69625,1,0,0:0:0:0:
320,192,69898,1,2,0:0:0:0:
64,192,70170,1,2,0:0:0:0:
192,192,70443,1,4,0:0:0:0:
320,192,70443,1,2,0:0:0:0:
64,192,70716,1,2,0:0:0:0:
192,192,71261,1,2,0:0:0:0:
64,192,71534,1,2,0:0:0:0:
320,192,71534,1,4,0:0:0:0:
192,192,71807,1,2,0:0:0:0:
320,192,72080,1,0,0:0:0:0:
192,192,72352,1,0,0:0:0:0:
64,192,72625,1,0,0:0:0:0:
320,192,72898,1,2,0:0:0:0:
192,192,73034,1,2,0:0:0:0:
64,192,73170,1,2,0:0:0:0:
320,192,73443,1,2,0:0:0:0:
192,192,73716,128,2,74261:0:0:0:0:
320,192,74261,1,0,0:0:0:0:
64,192,74534,1,8,0:0:0:0:
320,192,74807,1,8,0:0:0:0:
448,192,75080,1,8,0:0:0:0:
320,192,75216,1,0,0:0:0:0:
64,192,75352,1,8,0:0:0:0:
192,192,75489,1,8,0:0:0:0:
320,192,75625,1,0,0:0:0:0:
448,192,75761,1,8,0:0:0:0:
320,192,75898,1,8,0:0:0:0:
64,192,76170,1,0,0:0:0:0:
192,192,76307,1,0,0:0:0:0:
320,192,76443,1,8,0:0:0:0:
448,192,76443,128,0,76989:0:0:0:0:
192,192,76716,1,8,0:0:0:0:
64,192,76989,1,8,0:0:0:0:
192,192,77261,1,8,0:0:0:0:
320,192,77398,1,0,0:0:0:0:
64,192,77534,128,0,78080:0:0:0:0:
448,192,77534,1,8,0:0:0:0:
192,192,77670,1,8,0:0:0:0:
320,192,77807,1,0,0:0:0:0:
448,192,77943,1,8,0:0:0:0:
320,192,78080,1,8,0:0:0:0:
192,192,78352,1,8,0:0:0:0:
64,192,78489,1,0,0:0:0:0:
320,192,78625,128,0,79170:0:0:0:0:
448,192,78625,1,8,0:0:0:0:
192,192,78898,1,8,0:0:0:0:
64,192,79170,1,8,0:0:0:0:
448,192,79443,1,8,0:0:0:0:
320,192,79580,1,0,0:0:0:0:
192,192,79716,1,8,0:0:0:0:
64,192,79852,1,8,0:0:0:0:
448,192,79989,1,0,0:0:0:0:
192,192,80125,1,8,0:0:0:0:
320,192,80261,1,8,0:0:0:0:
64,192,80534,1,0,0:0:0:0:
448,192,80670,1,0,0:0:0:0:
320,192,80807,1,8,0:0:0:0:
192,192,81080,1,8,0:0:0:0:
64,192,81352,1,8,0:0:0:0:
448,192,81625,1,8,0:0:0:0:
320,192,81761,1,0,0:0:0:0:
192,192,81898,1,8,0:0:0:0:
64,192,82034,1,8,0:0:0:0:
448,192,82170,1,0,0:0:0:0:
320,192,82307,1,8,0:0:0:0:
192,192,82443,1,8,0:0:0:0:
64,192,82716,1,8,0:0:0:0:
192,192,82852,1,0,0:0:0:0:
448,192,82989,1,0,0:0:0:0:
320,192,82989,128,0,83534:0:0:0:0:
192,192,83261,1,8,0:0:0:0:
64,192,83534,1,8,0:0:0:0:
448,192,83807,1,8,0:0:0:0:
320,192,83943,1,0,0:0:0:0:
192,192,84080,1,8,0:0:0:0:
64,192,84216,1,8,0:0:0:0:
192,192,84352,1,0,0:0:0:0:
320,192,84489,1,8,0:0:0:0:
448,192,84625,1,8,0:0:0:0:
320,192,84898,1,0,0:0:0:0:
192,192,85034,1,0,0:0:0:0:
64,192,85170,1,8,0:0:0:0:
448,192,85170,128,0,85716:0:0:0:0:
192,192,85443,1,8,0:0:0:0:
320,192,85716,1,8,0:0:0:0:
64,192,85989,1,8,0:0:0:0:
192,192,86125,1,0,0:0:0:0:
448,192,86261,1,8,0:0:0:0:
320,192,86261,128,0,86807:0:0:0:0:
64,192,86398,1,8,0:0:0:0:
448,192,86534,1,0,0:0:0:0:
192,192,86670,1,8,0:0:0:0:
448,192,86807,1,8,0:0:0:0:
64,192,86807,128,0,87352:0:0:0:0:
192,192,87080,1,8,0:0:0:0:
320,192,87216,1,0,0:0:0:0:
192,192,87352,128,0,87898:0:0:0:0:
448,192,87352,1,8,0:0:0:0:
320,192,87625,1,8,0:0:0:0:
64,192,87898,1,8,0:0:0:0:
320,192,88170,1,8,0:0:0:0:
448,192,88307,1,0,0:0:0:0:
192,192,88443,1,8,0:0:0:0:
64,192,88580,1,8,0:0:0:0:
320,192,88716,1,0,0:0:0:0:
448,192,88852,1,8,0:0:0:0:
192,192,88989,1,8,0:0:0:0:
320,192,89261,1,0,0:0:0:0:
64,192,89398,1,0,0:0:0:0:
448,192,89534,1,8,0:0:0:0:
192,192,89807,1,8,0:0:0:0:
64,192,90080,1,8,0:0:0:0:
192,192,90352,1,8,0:0:0:0:
320,192,90489,1,0,0:0:0:0:
448,192,90625,1,8,0:0:0:0:
64,192,90761,1,8,0:0:0:0:
320,192,90898,1,0,0:0:0:0:
192,192,91034,1,8,0:0:0:0:
448,192,91170,1,8,0:0:0:0:
320,192,91443,1,8,0:0:0:0:
192,192,91580,1,4,0:0:0:0:
448,192,91716,1,8,0:0:0:0:
64,192,91716,128,0,92261:0:0:0:0:
320,192,91989,1,8,0:0:0:0:
192,192,92261,1,4,0:0:0:0:
448,192,92261,1,8,0:0:0:0:
320,192,92534,1,8,0:0:0:0:
192,192,92670,1,0,0:0:0:0:
448,192,92807,128,0,93352:0:0:0:0:
64,192,92807,1,8,0:0:0:0:
320,192,92943,1,8,0:0:0:0:
192,192,93080,1,0,0:0:0:0:
64,192,93216,1,8,0:0:0:0:
320,192,93352,1,4,0:0:0:0:
192,192,93352,1,8,0:0:0:0:
64,192,93625,1,0,0:0:0:0:
192,192,93761,1,0,0:0:0:0:
320,192,93898,128,0,94443:0:0:0:0:
448,192,93898,1,8,0:0:0:0:
192,192,94170,1,8,0:0:0:0:
64,192,94443,1,12,0:0:0:0:
320,192,94716,1,8,0:0:0:0:
448,192,94852,1,0,0:0:0:0:
192,192,94989,128,0,95534:0:0:0:0:
64,192,94989,1,8,0:0:0:0:
320,192,95125,1,8,0:0:0:0:
448,192,95261,1,0,0:0:0:0:
320,192,95398,1,8,0:0:0:0:
64,192,95534,1,4,0:0:0:0:
448,192,95534,1,8,0:0:0:0:
320,192,95807,1,0,0:0:0:0:
448,192,95943,1,0,0:0:0:0:
64,192,96080,128,0,99352:0:0:0:0:
192,192,96080,1,8,0:0:0:0:
320,192,96352,1,8,0:0:0:0:
192,192,96625,1,4,0:0:0:0:
448,192,96625,1,8,0:0:0:0:
192,192,96898,1,8,0:0:0:0:
320,192,97034,1,0,0:0:0:0:
448,192,97170,1,8,0:0:0:0:
320,192,97307,1,8,0:0:0:0:
192,192,97443,1,0,0:0:0:0:
448,192,97580,1,8,0:0:0:0:
192,192,97716,1,8,0:0:0:0:
320,192,97716,1,4,0:0:0:0:
448,192,97989,1,8,0:0:0:0:
320,192,98125,1,0,0:0:0:0:
192,192,98261,1,8,0:0:0:0:
320,192,98534,1,8,0:0:0:0:
320,192,98807,1,4,0:0:0:0:
448,192,98807,1,8,0:0:0:0:
192,192,99080,1,8,0:0:0:0:
320,192,99216,1,0,0:0:0:0:
448,192,99352,1,8,0:0:0:0:
192,192,99489,1,8,0:0:0:0:
320,192,99625,1,0,0:0:0:0:
448,192,99761,1,8,0:0:0:0:
64,192,99898,1,8,0:0:0:0:
192,192,99898,1,4,0:0:0:0:
320,192,100170,1,8,0:0:0:0:
192,192,100307,1,4,0:0:0:0:
448,192,100443,128,0,102625:0:0:0:0:
64,192,100443,1,8,0:0:0:0:
192,192,100716,1,8,0:0:0:0:
64,192,100989,1,0,0:0:0:0:
320,192,100989,1,4,0:0:0:0:
192,192,101261,1,8,0:0:0:0:
64,192,101398,1,0,0:0:0:0:
192,192,101534,1,8,0:0:0:0:
320,192,101670,1,8,0:0:0:0:
192,192,101807,1,0,0:0:0:0:
320,192,101943,1,8,0:0:0:0:
64,192,102080,1,4,0:0:0:0:
192,192,102080,1,8,0:0:0:0:
320,192,102352,1,0,0:0:0:0:
192,192,102489,1,0,0:0:0:0:
64,192,102625,128,0,103170:0:0:0:0:
320,192,102625,1,0,0:0:0:0:
192,192,102898,1,8,0:0:0:0:
448,192,103170,1,4,0:0:0:0:
320,192,103170,1,0,0:0:0:0:
320,192,103443,1,4,0:0:0:0:
64,192,103716,1,0,0:0:0:0:
448,192,103716,1,4,0:0:0:0:
192,192,104125,1,4,0:0:0:0:
320,192,104125,1,0,0:0:0:0:
64,192,104534,1,4,0:0:0:0:
448,192,104534,1,0,0:0:0:0:
192,192,104807,1,4,0:0:0:0:
320,192,104807,1,0,0:0:0:0:
64,192,105080,1,2,0:0:0:0:
448,192,105352,1,2,0:0:0:0:
192,192,105625,1,2,0:0:0:0:
320,192,105898,1,2,0:0:0:0:
448,192,106170,1,2,0:0:0:0:
192,192,106443,1,4,0:0:0:0:
64,192,106580,1,4,0:0:0:0:
320,192,106716,1,4,0:0:0:0:
448,192,106852,1,4,0:0:0:0:
192,192,106989,1,12,0:0:0:0:
64,192,109170,128,0,109716:0:0:0:0:
192,192,109170,1,0,0:0:0:0:
320,192,109716,1,0,0:0:0:0:
448,192,109716,1,0,0:0:0:0:
448,192,110261,128,0,110807:0:0:0:0:
192,192,110261,1,0,0:0:0:0:
64,192,110807,1,0,0:0:0:0:
320,192,110807,1,0,0:0:0:0:
448,192,111352,128,0,111898:0:0:0:0:
192,192,111352,1,0,0:0:0:0:
320,192,111625,128,0,111898:0:0:0:0:
192,192,111898,128,0,112443:0:0:0:0:
64,192,111898,1,0,0:0:0:0:
64,192,112443,128,0,112989:0:0:0:0:
448,192,112443,1,0,0:0:0:0:
320,192,112989,1,0,0:0:0:0:
192,192,112989,1,4,0:0:0:0:
64,192,113534,128,0,114080:0:0:0:0:
448,192,113534,1,0,0:0:0:0:
192,192,113807,1,0,0:0:0:0:
320,192,114080,1,4,0:0:0:0:
448,192,114080,1,0,0:0:0:0:
448,192,114625,128,0,115170:0:0:0:0:
320,192,114625,1,0,0:0:0:0:
192,192,115170,1,4,0:0:0:0:
64,192,115170,1,0,0:0:0:0:
64,192,115716,128,0,116261:0:0:0:0:
192,192,115716,1,0,0:0:0:0:
320,192,115989,1,0,0:0:0:0:
448,192,116261,1,4,0:0:0:0:
192,192,116261,1,0,0:0:0:0:
320,192,116807,128,0,117352:0:0:0:0:
64,192,116807,1,0,0:0:0:0:
448,192,117352,1,0,0:0:0:0:
192,192,117352,1,4,0:0:0:0:
192,192,117898,128,0,118443:0:0:0:0:
320,192,117898,1,0,0:0:0:0:
64,192,118170,128,0,118443:0:0:0:0:
320,192,118443,128,0,118989:0:0:0:0:
448,192,118443,1,4,0:0:0:0:
448,192,118989,128,0,119534:0:0:0:0:
192,192,118989,1,0,0:0:0:0:
320,192,119534,128,0,119807:0:0:0:0:
64,192,119534,1,4,0:0:0:0:
192,192,119807,128,0,120080:0:0:0:0:
64,192,120080,128,0,120625:0:0:0:0:
448,192,120080,1,0,0:0:0:0:
320,192,120625,128,0,121170:0:0:0:0:
192,192,120625,1,4,0:0:0:0:
448,192,121170,1,0,0:0:0:0:
448,192,121716,128,0,122261:0:0:0:0:
320,192,121716,1,4,0:0:0:0:
192,192,121716,128,0,121989:0:0:0:0:
64,192,121989,128,0,122261:0:0:0:0:
192,192,122261,1,0,0:0:0:0:
320,192,122261,1,0,0:0:0:0:
320,192,122807,128,0,123352:0:0:0:0:
448,192,122807,1,4,0:0:0:0:
64,192,123352,1,0,0:0:0:0:
192,192,123898,128,0,124443:0:0:0:0:
64,192,123898,1,4,0:0:0:0:
320,192,124443,1,0,0:0:0:0:
64,192,124989,128,0,125534:0:0:0:0:
192,192,124989,1,4,0:0:0:0:
320,192,125534,1,0,0:0:0:0:
320,192,126080,128,0,126625:0:0:0:0:
448,192,126080,1,4,0:0:0:0:
192,192,126625,1,0,0:0:0:0:
448,192,127170,128,0,127716:0:0:0:0:
64,192,127170,1,4,0:0:0:0:
320,192,127716,1,0,0:0:0:0:
192,192,128261,128,0,128807:0:0:0:0:
448,192,128261,1,4,0:0:0:0:
64,192,128807,1,0,0:0:0:0:
320,192,128807,128,2,129080:0:0:0:0:
448,192,129080,128,2,129352:0:0:0:0:
64,192,129352,128,2,129898:0:0:0:0:
192,192,129352,1,4,0:0:0:0:
448,192,129898,128,2,130443:0:0:0:0:
320,192,129898,1,0,0:0:0:0:
64,192,130443,1,4,0:0:0:0:
192,192,130989,128,2,131534:0:0:0:0:
320,192,130989,1,0,0:0:0:0:
448,192,131261,1,0,0:0:0:0:
64,192,131534,1,4,0:0:0:0:
320,192,132080,128,2,132625:0:0:0:0:
448,192,132080,1,0,0:0:0:0:
192,192,132625,1,4,0:0:0:0:
64,192,132625,1,0,0:0:0:0:
448,192,132898,1,2,0:0:0:0:
64,192,133170,128,2,133716:0:0:0:0:
192,192,133170,1,0,0:0:0:0:
320,192,133443,1,0,0:0:0:0:
448,192,133716,1,4,0:0:0:0:
192,192,133716,1,0,0:0:0:0:
192,192,134261,128,0,134807:0:0:0:0:
320,192,134261,1,0,0:0:0:0:
64,192,134807,1,4,0:0:0:0:
448,192,134807,1,0,0:0:0:0:
448,192,135352,128,2,135898:0:0:0:0:
192,192,135352,1,0,0:0:0:0:
64,192,135625,128,2,135898:0:0:0:0:
320,192,135625,1,0,0:0:0:0:
192,192,135898,128,2,136443:0:0:0:0:
320,192,135898,1,4,0:0:0:0:
320,192,136443,128,2,136989:0:0:0:0:
448,192,136443,1,0,0:0:0:0:
64,192,136989,128,2,137261:0:0:0:0:
448,192,136989,1,4,0:0:0:0:
192,192,137261,128,2,137534:0:0:0:0:
448,192,137534,128,2,138080:0:0:0:0:
320,192,137534,1,0,0:0:0:0:
320,192,138080,1,4,0:0:0:0:
64,192,138080,1,0,0:0:0:0:
64,192,138625,128,0,139170:0:0:0:0:
192,192,138625,1,0,0:0:0:0:
192,192,139170,128,0,139443:0:0:0:0:
448,192,139170,1,4,0:0:0:0:
320,192,139443,128,0,139716:0:0:0:0:
448,192,139716,128,0,141898:0:0:0:0:
64,192,139716,1,0,0:0:0:0:
320,192,140261,1,0,0:0:0:0:
320,192,140807,128,0,141898:0:0:0:0:
192,192,140807,1,0,0:0:0:0:
64,192,141352,1,0,0:0:0:0:
192,192,141898,1,0,0:0:0:0:
64,192,141898,128,0,142989:0:0:0:0:
320,192,143534,128,0,144080:0:0:0:0:
64,192,144080,128,0,157170:0:0:0:0:
192,192,144080,1,0,0:0:0:0:
448,192,144352,1,0,0:0:0:0:
320,192,144625,1,0,0:0:0:0:
192,192,144625,1,4,0:0:0:0:
448,192,144898,1,0,0:0:0:0:
320,192,145034,1,0,0:0:0:0:
192,192,145170,1,0,0:0:0:0:
320,192,145443,1,0,0:0:0:0:
448,192,145716,1,0,0:0:0:0:
192,192,145716,1,4,0:0:0:0:
320,192,145989,1,0,0:0:0:0:
448,192,146261,1,0,0:0:0:0:
320,192,146534,1,0,0:0:0:0:
192,192,146807,1,0,0:0:0:0:
448,192,146807,1,4,0:0:0:0:
448,192,147080,1,0,0:0:0:0:
320,192,147216,1,0,0:0:0:0:
192,192,147352,1,0,0:0:0:0:
320,192,147625,1,0,0:0:0:0:
320,192,147898,1,4,0:0:0:0:
448,192,147898,1,0,0:0:0:0:
192,192,148170,1,0,0:0:0:0:
320,192,148443,1,0,0:0:0:0:
448,192,148716,1,0,0:0:0:0:
192,192,148989,1,0,0:0:0:0:
320,192,148989,1,4,0:0:0:0:
448,192,149261,1,0,0:0:0:0:
192,192,149398,1,0,0:0:0:0:
320,192,149534,1,0,0:0:0:0:
192,192,149807,1,0,0:0:0:0:
320,192,150080,1,4,0:0:0:0:
448,192,150080,1,0,0:0:0:0:
192,192,150352,1,0,0:0:0:0:
448,192,150625,1,0,0:0:0:0:
320,192,150898,1,0,0:0:0:0:
192,192,151170,1,0,0:0:0:0:
448,192,151170,1,4,0:0:0:0:
320,192,151443,1,0,0:0:0:0:
448,192,151580,1,0,0:0:0:0:
192,192,151716,1,0,0:0:0:0:
320,192,151989,1,0,0:0:0:0:
320,192,152261,1,4,0:0:0:0:
448,192,152261,1,0,0:0:0:0:
192,192,152534,1,0,0:0:0:0:
320,192,152807,1,0,0:0:0:0:
448,192,153080,1,0,0:0:0:0:
192,192,153352,1,0,0:0:0:0:
320,192,153352,1,4,0:0:0:0:
448,192,153625,1,0,0:0:0:0:
192,192,153898,1,0,0:0:0:0:
320,192,154170,1,0,0:0:0:0:
448,192,154443,1,4,0:0:0:0:
192,192,154443,1,0,0:0:0:0:
320,192,154716,1,0,0:0:0:0:
448,192,154989,1,0,0:0:0:0:
192,192,155261,1,0,0:0:0:0:
448,192,155534,1,0,0:0:0:0:
320,192,155534,1,4,0:0:0:0:
192,192,155807,1,0,0:0:0:0:
320,192,155943,1,0,0:0:0:0:
448,192,156080,1,0,0:0:0:0:
192,192,156352,1,0,0:0:0:0:
320,192,156625,1,4,0:0:0:0:
448,192,156625,1,0,0:0:0:0:
448,192,156898,1,0,0:0:0:0:
192,192,157170,1,0,0:0:0:0:
448,192,157443,128,0,157716:0:0:0:0:
320,192,157716,128,4,157989:0:0:0:0:
192,192,157989,128,0,158261:0:0:0:0:
64,192,157989,1,0,0:0:0:0:
448,192,158261,1,0,0:0:0:0:
320,192,158534,128,0,158807:0:0:0:0:
192,192,158807,128,4,159080:0:0:0:0:
448,192,158807,1,0,0:0:0:0:
64,192,159080,128,0,159352:0:0:0:0:
320,192,159352,1,0,0:0:0:0:
448,192,159625,128,0,159898:0:0:0:0:
320,192,159898,128,4,160170:0:0:0:0:
64,192,159898,1,0,0:0:0:0:
192,192,160170,128,0,160443:0:0:0:0:
64,192,160443,128,0,160716:0:0:0:0:
448,192,160443,1,0,0:0:0:0:
448,192,160716,128,0,160989:0:0:0:0:
192,192,160716,1,4,0:0:0:0:
320,192,160989,128,0,161534:0:0:0:0:
64,192,160989,1,4,0:0:0:0:
64,192,161534,128,0,178989:0:0:0:0:
192,192,161534,1,0,0:0:0:0:
448,192,161807,1,0,0:0:0:0:
192,192,162080,1,4,0:0:0:0:
320,192,162080,1,0,0:0:0:0:
192,192,162352,1,0,0:0:0:0:
320,192,162489,1,0,0:0:0:0:
448,192,162625,1,0,0:0:0:0:
320,192,162898,1,0,0:0:0:0:
192,192,163170,1,4,0:0:0:0:
448,192,163170,1,0,0:0:0:0:
320,192,163443,1,0,0:0:0:0:
448,192,163716,1,0,0:0:0:0:
320,192,163989,1,0,0:0:0:0:
192,192,164261,1,0,0:0:0:0:
448,192,164261,1,4,0:0:0:0:
448,192,164534,1,0,0:0:0:0:
320,192,164670,1,0,0:0:0:0:
192,192,164807,1,0,0:0:0:0:
448,192,165080,1,0,0:0:0:0:
192,192,165352,1,0,0:0:0:0:
320,192,165352,1,4,0:0:0:0:
448,192,165625,1,0,0:0:0:0:
192,192,165898,1,0,0:0:0:0:
448,192,166170,1,0,0:0:0:0:
192,192,166443,1,0,0:0:0:0:
320,192,166443,1,4,0:0:0:0:
448,192,166716,1,0,0:0:0:0:
320,192,166852,1,0,0:0:0:0:
192,192,166989,1,0,0:0:0:0:
320,192,167261,1,0,0:0:0:0:
192,192,167534,1,0,0:0:0:0:
448,192,167534,1,4,0:0:0:0:
320,192,167807,1,0,0:0:0:0:
448,192,168080,1,0,0:0:0:0:
192,192,168352,1,0,0:0:0:0:
448,192,168625,1,0,0:0:0:0:
320,192,168625,1,4,0:0:0:0:
192,192,168898,1,0,0:0:0:0:
320,192,169034,1,0,0:0:0:0:
448,192,169170,1,0,0:0:0:0:
320,192,169443,1,0,0:0:0:0:
192,192,169716,1,0,0:0:0:0:
448,192,169716,1,4,0:0:0:0:
320,192,169989,1,0,0:0:0:0:
192,192,170261,1,0,0:0:0:0:
448,192,170534,1,0,0:0:0:0:
192,192,170807,1,0,0:0:0:0:
320,192,170807,1,4,0:0:0:0:
448,192,171080,1,0,0:0:0:0:
320,192,171352,1,0,0:0:0:0:
192,192,171625,1,0,0:0:0:0:
320,192,171898,1,4,0:0:0:0:
448,192,171898,1,0,0:0:0:0:
192,192,172170,1,0,0:0:0:0:
448,192,172443,1,0,0:0:0:0:
320,192,172716,1,0,0:0:0:0:
192,192,172989,1,0,0:0:0:0:
448,192,172989,1,4,0:0:0:0:
320,192,173261,1,0,0:0:0:0:
192,192,173534,1,0,0:0:0:0:
448,192,173807,1,0,0:0:0:0:
192,192,174080,1,0,0:0:0:0:
320,192,174080,1,4,0:0:0:0:
448,192,174352,1,0,0:0:0:0:
192,192,174625,1,0,0:0:0:0:
448,192,174898,128,0,175443:0:0:0:0:
192,192,175170,1,4,0:0:0:0:
320,192,175443,128,0,175989:0:0:0:0:
192,192,175716,1,0,0:0:0:0:
192,192,175989,128,0,176807:0:0:0:0:
448,192,176261,1,4,0:0:0:0:
448,192,176807,128,0,178443:0:0:0:0:
320,192,176807,1,12,0:0:0:0:
192,192,178443,128,0,178989:0:0:0:0:
448,192,178989,1,0,0:0:0:0:
320,192,178989,1,0,0:0:0:0:
