osu file format v9

[General]
AudioFilename: TombstoneSeptemberToastbeard-Final.mp3
AudioLeadIn: 0
PreviewTime: -1
Countdown: 1
SampleSet: Soft
StackLeniency: 0.7
Mode: 0
LetterboxInBreaks: 1

[Editor]
DistanceSpacing: 0.8
BeatDivisor: 6
GridSize: 16

[Metadata]
Title:September
Artist:The Living Tombstone (ft. Mic the Mic)
Creator:mattdo44
Version:Wondering
Source:YouTube
Tags:MLP My Little Pony Brony living tombstone thelivingtombstone mic microphone

[Difficulty]
HPDrainRate:6
CircleSize:5
OverallDifficulty:5
ApproachRate:6
SliderMultiplier:1.70000000596046
SliderTickRate:2

[Events]
//Background and Video events
0,0,"september background.jpg"
//Break Periods
2,6917,10290
2,92484,111611
2,167389,171328
//Storyboard Layer 0 (Background)
//Storyboard Layer 1 (Fail)
//Storyboard Layer 2 (Pass)
//Storyboard Layer 3 (Foreground)
//Storyboard Sound Samples
//Background Colour Transformations
3,100,163,162,255

[TimingPoints]
12472.8867924528,566.037735849057,4,2,0,60,1,0
52001,566.037735849057,4,2,0,60,1,1
70114,566.037735849057,4,2,0,60,1,0
175868,566.037735849057,4,2,0,60,1,1
180303,566.037735849057,4,1,0,100,1,0

[Colours]
Combo1 : 0,0,0
Combo2 : 2,98,2
Combo3 : 2,2,91
Combo4 : 136,136,136
Combo5 : 155,155,0

[HitObjects]
256,192,2472,12,0,6717
176,48,11340,6,0,B|256:32|352:48,1,170.000000596046,0|8
384,112,12472,2,0,B|432:192|400:288,1,170.000000596046,0|8
352,336,13604,2,0,B|256:352|176:336,1,170.000000596046,0|8
128,320,14454,1,0
80,272,14737,2,0,B|48:192|64:96,1,170.000000596046,0|8
112,64,15586,1,0
176,32,15869,6,0,B|256:16|368:32,1,170.000000596046,0|8
176,160,17001,2,0,B|256:208|352:160,1,170.000000596046,0|8
416,112,18133,2,0,B|464:192|432:288,1,170.000000596046,0|8
336,256,18982,1,0
272,256,19265,1,4
160,128,20680,5,0
160,192,20963,1,0
224,128,21246,1,0
224,192,21529,1,0
192,256,21812,1,0
128,320,22378,1,0
96,256,22661,1,0
96,192,22944,1,0
128,128,23227,1,0
192,128,23510,2,0,B|192:224,2,85.000000298023
256,256,24642,5,0
320,256,24925,1,0
320,192,25208,1,0
320,128,25491,1,0
256,128,25774,1,0
192,128,26057,1,0
64,128,26623,1,0
64,192,26906,1,0
64,256,27189,1,0
64,320,27472,1,0
128,320,27755,1,0
192,320,28038,2,0,B|192:224,3,85.000000298023,0|0|0|0
224,128,29737,5,0
224,192,30020,1,0
224,256,30303,2,0,B|224:352,2,85.000000298023
192,192,31435,5,0
256,192,31718,1,0
256,288,32001,1,0
192,288,32284,1,0
128,288,32567,1,0
128,192,32850,1,0
192,192,33133,1,0
288,144,33416,6,0,B|288:240,1,85.000000298023
288,288,33982,1,0
224,288,34265,1,0
160,288,34548,1,0
112,256,34831,1,0
112,192,35114,1,0
160,160,35397,1,0
224,160,35680,6,0,B|224:256,1,85.000000298023
224,288,36246,1,0
288,288,36529,1,0
352,288,36812,1,0
352,224,37095,1,0
288,224,37378,1,0
288,160,37661,5,0
288,160,37944,1,0
192,160,38227,1,0
128,160,38510,1,0
128,224,38793,1,0
224,256,39076,1,0
288,256,39359,1,0
288,192,39642,1,0
288,192,40491,5,0
224,192,40774,1,0
160,192,41057,1,0
160,256,41340,1,0
224,256,41623,1,0
224,256,41906,1,0
176,96,43038,6,0,B|272:96,1,85.000000298023
352,96,43604,1,8
336,160,44170,6,0,B|336:256,1,85.000000298023
288,240,44737,1,8
256,192,45303,6,0,B|160:192,1,85.000000298023
176,192,45869,1,8
96,192,46152,1,0
32,192,46435,1,0
64,128,46718,1,0
128,128,47001,6,0,B|224:128,1,85.000000298023,8|0
272,128,47567,1,0
272,208,47850,1,0
272,288,48133,1,8
400,208,48699,6,0,B|304:208,1,85.000000298023
192,208,49265,1,8
384,208,49831,5,0
304,208,50114,1,0
224,208,50397,1,8
144,208,50680,1,0
144,304,50963,2,0,B|240:304,3,85.000000298023,0|0|8|0
320,304,52095,5,0
464,256,53227,1,0
288,256,54076,1,0
128,256,54642,1,0
208,208,54925,1,0
288,160,55208,1,0
352,96,55491,1,0
288,96,55774,1,0
240,96,56057,1,0
192,96,56340,1,0
128,176,56623,5,0
192,176,57755,1,0
336,176,58604,1,0
272,176,59171,1,0
192,256,59454,1,0
192,176,59737,1,0
192,112,60020,1,0
192,48,60303,1,0
256,112,60586,5,0
352,112,60869,1,0
352,112,61152,1,0
352,256,62284,1,0
256,256,63133,1,0
128,256,63699,1,0
128,112,63982,1,0
256,112,64265,1,0
368,112,64548,1,0
368,256,64831,1,0
288,256,65114,1,0
208,256,65397,1,0
128,256,65680,1,0
80,128,66812,5,0
416,128,67661,1,0
416,288,68227,1,0
304,288,68510,1,0
224,288,68793,1,0
224,192,69076,1,0
224,96,69359,1,0
96,96,69642,1,0
160,96,69925,1,4
176,288,70491,6,0,B|144:256|176:224,1,56.6666668653487
176,176,71057,1,0
288,176,71340,1,0
384,176,71623,1,0
304,272,72189,1,0
416,272,72472,1,0
416,176,72755,1,0
304,176,73038,1,0
240,176,73321,2,0,B|240:272,1,85.000000298023
160,224,73887,1,0
160,112,74171,5,0
240,112,74454,1,0
336,112,74737,1,0
336,240,75020,1,0
256,240,75303,1,0
160,240,75586,1,0
160,160,75869,1,0
256,160,76435,6,0,B|256:256,1,85.000000298023
256,304,77001,1,0
144,304,77284,1,0
144,192,77567,1,0
144,96,77850,2,0,B|240:96,1,85.000000298023
224,144,78982,5,0
128,144,79548,1,0
336,144,80114,1,0
336,240,80397,1,0
240,240,80680,1,0
160,240,81246,5,0
160,176,81529,1,0
160,112,81812,1,0
256,160,82095,1,0
256,240,82378,1,0
384,240,82661,1,0
384,176,82944,1,0
384,112,83227,5,0
240,144,83793,1,0
176,144,84076,1,0
96,144,84359,1,0
96,64,84642,1,0
176,64,84925,1,0
352,64,85491,5,0
352,144,85774,1,0
352,224,86057,1,0
272,224,86340,1,0
192,224,86623,1,0
192,128,86906,1,0
272,128,87189,1,0
304,272,87661,5,0
224,272,87944,1,0
144,272,88321,1,0
144,192,88604,1,0
240,192,89171,1,0
320,192,89454,1,0
320,128,90020,5,0
224,128,90303,1,0
224,48,90586,1,0
320,48,90869,1,0
320,128,91152,1,0
320,224,91435,1,0
224,224,91718,1,0
144,224,92284,1,4
224,144,112661,5,0
176,144,113982,5,0
240,144,114359,1,0
272,144,114548,1,0
304,144,114737,1,0
352,144,115020,1,0
224,272,116340,5,0
224,224,116529,1,0
224,176,116717,1,0
176,176,116906,1,0
128,176,117095,1,0
224,112,118887,5,0
224,176,119170,1,0
160,176,119547,5,0
160,128,119831,1,0
160,80,120114,1,0
208,80,120303,1,0
256,80,120491,1,0
288,80,120680,1,0
320,80,121246,1,0
320,144,121529,1,0
320,224,121812,5,0
352,256,122944,5,0
352,144,123604,1,0
272,144,123887,1,0
208,144,124076,1,0
208,80,124359,1,0
320,80,124548,1,0
320,208,125303,5,0
224,272,125492,1,0
176,272,125680,1,0
128,272,125963,2,0,B|128:240,3,28.3333334326743
256,128,127189,1,0
256,176,127472,1,0
144,176,127755,1,0
144,112,127944,2,0,B|144:80,4,28.3333334326743
224,128,128887,5,0
224,192,129076,1,0
64,192,129925,1,0
240,128,131152,1,0
240,208,131435,1,0
240,288,131718,1,0
144,288,131906,1,0
144,208,132189,1,0
304,208,132944,5,0
304,112,133227,1,0
192,112,133604,1,0
80,112,134454,1,0
80,64,135020,5,0
176,64,135303,1,0
272,64,135586,1,0
272,192,136152,1,0
160,192,136435,1,0
160,272,136718,1,0
224,176,137850,5,0
224,112,138132,1,0
320,192,138982,1,0
160,112,140397,5,0
160,176,140680,1,0
240,112,140963,1,0
240,176,141246,1,0
336,160,142001,5,0
336,256,142284,1,0
240,256,142567,1,0
240,112,143227,1,0
240,192,143510,1,0
240,304,144076,5,0
160,304,144359,1,0
160,224,144642,1,0
256,80,145114,1,0
256,208,145491,1,0
256,320,145774,1,0
144,96,147189,6,0,B|96:176|144:240,1,141.666667163372
288,96,148321,2,0,B|336:176|288:240,1,141.666667163372
144,96,149454,2,0,B|96:176|144:240,1,141.666667163372
288,96,150491,2,0,B|336:176|288:240,1,141.666667163372
144,96,151623,2,0,B|96:176|144:240,1,141.666667163372
336,224,152661,5,0
336,192,153227,5,0
336,144,153510,1,0
336,112,153699,1,0
336,64,153982,1,0
208,64,154171,1,0
144,224,155114,1,0
224,224,155491,1,0
304,224,155680,1,0
320,128,155774,2,0,B|320:80,5,28.3333334326743
208,96,157755,5,0
208,176,158132,1,0
208,256,158321,1,0
368,272,158604,1,0
368,192,158792,1,0
336,192,158981,1,0
304,192,159171,1,0
160,80,160209,1,0
160,128,160397,1,0
160,176,160586,1,0
224,176,160775,1,0
288,176,160963,1,0
352,176,162284,1,0
352,256,162661,1,0
272,256,162850,1,0
192,256,163038,1,0
192,176,163416,1,0
256,192,165303,12,0,167189
176,96,172378,5,0
224,96,172661,1,0
256,96,172944,1,0
320,96,173227,1,0
320,96,173510,1,0
320,144,174077,1,0
320,192,174360,1,0
256,192,174643,1,0
160,128,174926,1,0
160,208,175114,1,0
160,288,175397,1,0
256,288,175680,1,0
336,288,175963,5,0
336,208,176246,1,0
240,208,176529,1,0
240,288,176812,1,0
240,208,177095,1,0
240,128,177378,1,0
128,128,177661,1,0
128,304,178321,5,0
208,192,178604,1,0
208,304,178887,1,0
128,192,179171,1,0
128,192,179454,1,0
208,192,179737,1,0
304,192,180020,1,0
304,96,180586,5,4
