osu file format v9

[General]
AudioFilename: TombstoneSeptemberToastbeard-Final.mp3
AudioLeadIn: 0
PreviewTime: -1
Countdown: 1
SampleSet: Soft
StackLeniency: 0.7
Mode: 0
LetterboxInBreaks: 1

[Editor]
DistanceSpacing: 0.8
BeatDivisor: 4
GridSize: 16

[Metadata]
Title:September
Artist:The Living Tombstone (ft. Mic the Mic)
Creator:mattdo44
Version:Waking up
Source:YouTube
Tags:MLP My Little Pony Brony living tombstone thelivingtombstone mic microphone

[Difficulty]
HPDrainRate:5
CircleSize:5
OverallDifficulty:5
ApproachRate:5
SliderMultiplier:1.4
SliderTickRate:1

[Events]
//Background and Video events
0,0,"september background.jpg"
//Break Periods
2,42106,50895
2,92484,109763
//Storyboard Layer 0 (Background)
//Storyboard Layer 1 (Fail)
//Storyboard Layer 2 (Pass)
//Storyboard Layer 3 (Foreground)
//Storyboard Sound Samples
//Background Colour Transformations
3,100,163,162,255

[TimingPoints]
12472.8867924528,566.037735849057,4,2,0,71,1,0
175916,566.037735849057,4,2,0,71,1,1

[Colours]
Combo1 : 119,71,0
Combo2 : 3,129,3
Combo3 : 2,2,119
Combo4 : 135,3,3
Combo5 : 0,0,0

[HitObjects]
256,192,2661,12,0,6812
144,96,11340,5,0
368,96,12472,1,0
368,288,13604,1,0
144,288,14737,1,0
144,96,15869,1,0
368,96,17001,1,0
368,288,18133,1,0
144,288,19265,1,4
288,160,20680,5,0
288,256,20963,1,0
224,256,21246,1,0
160,256,21529,1,0
160,224,22378,5,0
160,160,22661,1,0
256,160,22944,1,0
320,160,23227,1,0
320,240,23510,2,0,B|352:272|320:320,2,70
160,160,24642,5,0
224,160,24925,1,0
288,160,25208,1,0
352,160,25491,1,0
352,256,25774,1,0
288,256,26057,1,0
224,256,26623,5,0
160,256,26906,1,0
160,192,27189,1,0
160,128,27472,1,0
160,64,27755,2,0,B|240:64,1,70
320,64,28321,1,0
320,256,29737,5,0
256,256,30020,1,0
192,256,30303,1,0
128,256,30586,1,0
128,192,30869,1,0
128,96,31435,1,0
192,96,31718,1,0
256,96,32001,1,0
320,96,32284,1,0
320,160,32567,1,0
320,224,32850,1,0
320,288,33133,1,0
256,288,33416,6,0,B|176:288,1,70
128,288,33982,1,0
32,288,34265,1,0
32,224,34548,1,0
32,160,34831,1,0
96,160,35114,1,0
192,160,35680,1,0
256,160,35963,1,0
320,160,36246,1,0
384,160,36529,1,0
384,224,36812,1,0
384,288,37095,2,0,B|288:288,1,70
256,288,37661,5,0
192,288,37944,1,0
128,288,38227,1,0
128,224,38510,1,0
192,224,38793,1,0
256,224,39076,1,0
320,224,39359,1,0
320,288,39642,1,0
352,160,40491,1,0
352,96,40774,1,0
352,32,41057,1,0
288,32,41340,1,0
224,32,41623,1,0
160,32,41906,1,0
256,128,52095,5,0
256,256,53227,1,0
96,256,54076,1,0
96,160,54642,1,0
96,96,54925,1,0
96,32,55208,1,0
160,32,55491,1,0
224,32,55774,1,0
224,96,56057,1,0
224,160,56340,1,0
288,160,56623,1,0
384,160,57755,5,0
288,160,58604,1,0
208,160,59171,1,0
128,224,59454,1,0
128,160,59737,1,0
128,96,60020,1,0
192,96,60303,1,0
256,96,60586,1,0
256,160,60869,1,0
256,224,61152,1,0
32,192,62284,5,0
32,32,63133,1,0
96,128,63699,1,0
160,128,63982,1,0
224,128,64265,1,0
224,192,64548,1,0
288,192,64831,1,0
352,192,65114,1,0
352,128,65397,1,0
288,128,65680,1,0
96,128,66812,1,0
192,128,67661,1,0
192,192,68227,1,0
128,192,68510,1,0
128,256,68793,1,0
192,256,69076,1,0
256,256,69359,1,0
320,256,69642,2,0,B|416:256,1,70,0|4
320,128,70491,5,0
256,128,70774,1,0
192,128,71057,1,0
192,192,71340,1,0
192,256,71623,1,0
256,256,72189,1,0
320,256,72472,1,0
384,256,72755,1,0
384,160,73038,1,0
320,160,73321,1,0
256,160,73604,1,0
192,160,73887,1,0
128,160,74171,6,0,B|32:160,1,70
64,256,74737,1,0
128,256,75020,1,0
192,256,75303,1,0
192,192,75586,1,0
256,192,75869,1,0
384,192,76293,1,0
384,144,76718,1,0
384,96,77001,1,0
320,96,77284,1,0
256,96,77567,1,0
192,96,77850,1,0
128,96,78133,2,0,B|32:96,1,70
128,192,78982,5,0
128,320,79548,1,0
224,320,80114,1,0
288,320,80397,1,0
288,256,80680,2,0,B|288:160,1,70
192,192,81529,5,0
128,192,81812,1,0
64,192,82095,1,0
64,256,82378,1,0
64,320,82661,1,0
128,320,82944,1,0
192,320,83227,2,0,B|288:320,1,70
384,320,83793,5,0
384,256,84076,1,0
320,224,84359,1,0
320,160,84642,1,0
256,224,84925,1,0
160,288,85491,5,0
160,224,85774,1,0
160,160,86057,1,0
160,96,86340,1,0
224,160,86623,1,0
288,160,86906,1,0
288,224,87189,1,0
288,288,87755,5,0
224,224,88038,1,0
160,224,88321,1,0
160,160,88604,1,0
160,96,88887,1,0
224,96,89454,1,0
256,160,90020,5,0
224,192,90303,1,0
176,192,90586,1,0
128,192,90869,1,0
96,160,91152,1,0
96,64,91435,1,0
160,64,91718,1,0
272,64,92284,1,4
192,160,110963,5,0
192,256,112095,1,0
320,256,113227,1,0
320,160,114359,1,0
192,160,115491,1,0
192,256,116623,1,0
320,256,117755,1,0
320,160,118887,1,0
192,160,120020,1,4
192,256,121152,1,0
336,256,122284,1,0
336,160,123416,1,0
192,160,124548,1,0
192,256,125680,1,0
320,256,126671,1,0
320,160,127944,1,0
160,160,128793,6,0,B|240:160,1,70
224,224,129925,1,0
160,256,131058,1,0
160,192,131340,1,0
160,128,131623,1,0
224,128,131906,1,0
288,128,132189,1,0
224,128,133038,1,0
288,128,133321,1,0
352,128,133604,1,0
320,128,134454,1,0
320,192,134878,1,0
320,224,135303,1,0
320,256,135586,1,0
224,288,136152,2,0,B|224:192,2,70
128,160,137850,5,0
192,160,138133,1,0
320,160,138982,1,0
320,64,140397,1,0
256,64,140680,1,0
192,64,140963,1,0
128,64,141246,1,0
192,160,141954,1,0
288,160,142378,1,0
352,160,142661,1,0
256,256,143227,1,0
192,256,143510,1,0
64,256,144076,1,0
64,192,144359,1,0
64,128,144642,1,0
304,128,145208,1,0
304,192,145491,1,0
304,256,145774,1,0
192,128,147189,5,0
320,128,148321,1,0
320,224,149454,1,0
192,224,150586,1,0
192,128,151718,1,0
320,128,152850,1,0
320,240,153982,1,0
192,240,154972,1,0
192,128,156104,1,0
320,128,157378,1,0
320,240,158510,1,0
192,240,159642,1,0
192,128,160774,1,0
320,128,161906,1,0
320,240,163038,1,0
160,240,164312,1,0
256,192,164737,12,0,167708
96,96,172378,5,0
160,96,172661,1,0
224,96,172944,1,0
288,96,173227,1,0
352,96,173510,1,0
352,192,174076,1,0
288,192,174359,1,0
224,192,174642,1,0
160,192,174925,1,0
80,192,175208,2,0,B|80:272,2,70
160,192,176057,5,0
224,160,176199,1,0
224,224,176482,1,0
288,192,176765,1,0
352,224,177189,1,0
416,160,177472,1,0
384,96,177755,1,0
320,128,178321,1,0
256,128,178604,1,0
160,128,178887,1,0
96,192,179171,1,0
64,128,179454,1,0
0,192,179595,1,0
64,256,180020,1,0
64,192,180586,1,4
