osu file format v5

[General]
AudioFilename: 0310 Molgera.mp3
AudioLeadIn: 0
AudioHash: edc0e404ae0a6267cdccdb146f645cfd
PreviewTime: -1
Countdown: 0
SampleSet: Normal
EditorBookmarks: 11212,39320

[Metadata]
Title:Molgera
Artist:The Legend of Zelda - The Wind Waker
Creator:Terrapin
Version:Insane

[Difficulty]
HPDrainRate:7
CircleSize:6
OverallDifficulty:7
SliderMultiplier:1.6
SliderTickRate:2

[Events]
//Background and Video events
//Break Periods
2,38737,41467
2,64931,76527
//Storyboard Layer 0 (Background)
//Storyboard Layer 1 (Failing)
//Storyboard Layer 2 (Passing)
//Storyboard Layer 3 (Foreground)
//Storyboard Sound Samples
//Background Colour Transformations
3,100,255,128,64

[TimingPoints]
13180,402.982067298005,4,1,0,100

[HitObjects]
136,328,12978,1,0
216,328,13180,1,2
336,328,13482,1,0
336,328,13582,1,0
296,256,13784,1,0
336,184,13985,1,0
296,112,14187,1,0
360,72,14388,2,0,B|360:72|344:37|280:32,1,80
216,32,14791,1,0
176,104,14993,1,0
112,56,15194,2,0,B|112:56|64:128|64:208|128:288|240:304,1,320
256,192,16202,5,0
256,112,16403,1,2
368,72,16706,1,0
368,72,16806,1,0
368,152,17008,1,0
368,232,17209,1,0
368,312,17411,1,0
288,312,17612,2,0,B|288:312|192:312,1,80
128,312,18015,1,0
128,232,18217,1,0
128,152,18418,2,2,B|128:152|128:64|232:32,2,160
256,192,19426,5,0
256,112,19627,1,2
376,112,19929,1,0
376,112,20030,1,0
432,168,20232,1,0
376,224,20433,2,0,B|376:224|376:304|248:320,1,160
192,248,21038,5,0
192,168,21239,1,2
72,192,21541,1,0
72,192,21642,1,0
56,272,21844,1,0
112,328,22045,2,0,B|112:328|174:362|231:341|264:280,1,160
256,160,22650,5,0
256,80,22851,1,2
376,80,23153,1,0
376,80,23254,1,0
376,160,23456,2,0,B|376:160|376:272,1,80
256,344,24060,1,0
256,264,24262,1,0
256,184,24463,2,2,B|256:184|250:80|360:80,3,160
448,128,25873,5,0
416,200,26075,1,2
320,128,26377,1,0
320,128,26478,1,0
320,208,26679,1,0
320,288,26881,1,0
256,336,27082,1,0
192,288,27284,2,0,B|192:288|88:288,1,80
56,232,27687,1,0
56,152,27888,1,0
56,72,28090,2,2,B|56:72|224:72,2,160
136,184,29097,5,0
136,264,29299,1,2
256,288,29601,1,0
256,288,29702,1,0
256,208,29903,2,0,B|256:208|256:120,2,80
320,256,30508,1,0
376,200,30709,2,0,B|376:200|448:136,2,80
392,280,31314,2,2,B|392:280|365:353|255:361|248:288,2,160
360,192,32321,5,0
360,112,32523,1,2
272,32,32825,1,0
272,32,32926,1,0
272,112,33127,1,0
272,192,33329,2,2,B|272:192|272:312,2,80
192,192,33933,1,0
192,272,34135,1,2
104,192,34437,1,0
104,192,34538,1,0
104,272,34739,1,0
104,352,34941,2,2,B|104:352|237:376|256:296,1,160
336,192,35545,5,0
336,272,35746,1,2
424,352,36049,1,0
424,352,36149,1,0
448,272,36351,1,0
448,192,36552,2,0,B|448:192|436:117|376:48,1,160
296,32,37157,1,0
256,112,37358,6,2,B|256:112|171:120|226:203|120:208,3,160
56,192,42396,6,0,B|56:192|24:224,2,40
112,248,42799,1,0
168,192,43000,1,2
224,136,43202,2,0,B|224:136|256:104,2,40
280,192,43605,1,0
336,248,43806,1,2
392,304,44008,2,0,B|392:304|432:344,2,40
440,240,44411,1,0
392,176,44612,1,2
432,112,44814,1,0
432,112,44914,1,0
432,112,45015,1,0
360,80,45217,5,0
336,152,45418,2,2,B|336:152|208:152|208:272|40:272,3,320
56,152,48037,5,0
56,72,48239,1,0
120,120,48440,1,0
120,40,48642,1,0
184,80,48843,1,0
184,160,49045,1,0
248,120,49246,1,0
248,40,49448,1,0
312,80,49649,1,0
312,160,49851,1,0
376,120,50052,1,0
432,184,50254,6,2,B|432:184|496:184,2,40
432,264,50657,1,0
360,224,50858,1,0
360,304,51060,1,0
288,264,51261,1,0
224,304,51463,1,2
224,304,51564,1,2
224,304,51664,1,2
112,264,51866,5,0
112,184,52067,1,0
112,184,52168,1,0
112,184,52269,2,0,B|112:184|221:192|264:136,1,160
264,56,52873,1,0
264,56,52974,1,0
264,56,53075,2,0,B|264:56|368:56|424:193|336:304,1,320
272,264,54082,2,2,B|272:264|208:264,2,40
288,152,54687,5,0
352,192,54888,1,0
352,112,55090,1,0
280,72,55291,1,0
280,72,55392,1,0
280,72,55493,2,2,B|280:72|153:59|168:192,1,160
88,192,56097,5,0
168,208,56299,1,0
144,280,56500,1,0
224,296,56702,1,0
304,296,56903,1,2
304,296,57004,1,2
304,296,57105,1,2
304,136,57508,1,0
144,96,57911,5,0
80,48,58112,1,0
64,128,58313,1,0
64,256,58716,1,0
80,336,58918,1,0
144,288,59119,1,2
184,176,59422,1,0
184,176,59522,1,0
264,176,59724,1,0
344,176,59925,2,2,B|344:176|415:209|360:320,2,160
264,80,61034,1,0
264,80,61134,1,0
208,24,61336,1,0
128,80,61537,5,2
128,80,61638,1,2
128,80,61739,1,2
128,168,61940,1,0
56,136,62142,1,0
56,216,62343,1,0
120,328,62746,1,0
256,344,63351,5,2
256,344,63452,1,2
256,344,63552,1,2
256,264,63754,1,0
256,184,63955,2,2,B|256:184|256:0,2,160
128,104,77455,5,0
184,48,77657,1,2
256,144,77959,1,0
256,144,78060,2,0,B|256:144|248:191|304:216,1,80
360,168,78463,2,0,B|360:168|381:205|360:264,5,80
304,296,79672,2,2,B|304:296|102:354|56:160,1,320
168,120,80679,5,0
192,40,80880,1,2
256,144,81183,1,0
256,144,81283,1,0
328,104,81485,1,0
328,184,81686,1,0
256,224,81888,1,0
328,248,82089,1,0
256,288,82291,1,0
328,312,82492,1,0
256,352,82694,1,0
176,344,82895,2,2,B|176:344|111:337|96:272,4,80
120,200,83903,5,0
176,256,84104,1,2
256,168,84407,1,0
256,168,84507,1,0
304,232,84709,1,0
360,176,84910,1,2
416,120,85112,1,2
432,200,85313,1,2
368,264,85515,5,0
312,320,85716,1,2
432,320,86019,1,0
432,320,86119,1,0
472,248,86321,1,0
472,168,86522,1,2
472,88,86724,1,2
392,88,86925,1,2
304,48,87127,5,0
304,128,87328,1,2
192,88,87630,1,0
192,88,87731,1,0
152,160,87933,1,0
232,160,88134,1,0
192,224,88336,1,0
88,176,88537,6,0,B|88:176|109:135|88:88,2,80
24,224,89142,1,0
88,272,89343,2,2,B|88:272|88:376|192:376|304:368|320:264,1,320
256,192,90351,5,0
256,112,90552,1,2
168,192,90854,1,0
168,192,90955,1,0
168,272,91157,1,0
216,336,91358,2,0,B|216:336|272:336|304:304,3,80
344,256,92164,1,0
384,184,92365,1,0
384,104,92567,2,2,B|384:104|376:8|248:56,2,160
296,192,93574,5,0
256,264,93776,1,2
160,192,94078,1,0
160,192,94179,1,0
160,112,94380,1,0
232,144,94582,1,0
240,64,94783,1,0
320,64,94985,2,0,B|320:64|368:64|368:128|376:128,1,80
320,184,95388,1,0
360,248,95589,1,0
408,312,95791,2,2,B|408:312|458:299|474:194|456:160,2,160
312,352,96798,5,0
312,272,97000,1,2
200,312,97302,1,0
200,312,97403,1,0
232,240,97604,1,0
152,240,97806,1,2
88,192,98007,1,2
152,144,98209,1,2
256,88,98410,6,0,B|256:88|254:157|320:160,1,80
384,80,98914,1,0
384,80,99015,1,0
440,136,99216,1,0
384,192,99418,1,2
440,248,99619,1,2
384,304,99821,1,2
256,208,100022,5,0
256,288,100224,1,2
136,288,100526,1,0
136,288,100627,1,0
88,352,100828,1,0
72,272,101030,2,0,B|72:272|13:215|74:145|48:80,1,160
56,40,101634,1,0
176,48,101836,5,2
256,64,102037,1,2
192,112,102239,1,2
272,128,102440,1,2
208,176,102642,1,2
288,192,102843,1,2
224,240,103045,1,2
304,256,103246,1,2
400,304,103447,5,0
440,192,103750,1,0
440,192,103850,1,0
440,112,104052,1,0
384,56,104253,2,0,B|384:56|296:-8|208:168|245:301|56:296|40:168,2,480
440,160,106873,5,0
440,160,106974,1,0
440,160,107074,1,0
440,240,107276,1,0
384,296,107477,1,2
328,240,107679,1,0
328,240,107780,1,0
328,240,107880,1,0
272,296,108082,1,0
208,344,108283,1,2
144,296,108485,1,0
144,296,108586,1,0
144,296,108686,1,0
80,344,108888,1,0
40,272,109089,1,2
72,200,109291,1,0
72,200,109391,1,0
72,200,109492,1,0
176,168,109694,5,0
176,88,109895,1,2
288,136,110197,1,0
288,136,110298,1,0
248,208,110500,1,0
328,208,110701,1,0
288,280,110903,1,0
368,280,111104,1,0
448,280,111306,1,0
448,200,111507,2,2,B|448:200|441:85|320:112,3,160
256,224,113119,5,2
256,144,113321,1,0
256,144,113421,1,0
256,144,113522,1,0
192,192,113724,1,2
192,112,113925,1,0
192,112,114026,1,0
192,112,114127,1,0
120,152,114328,1,0
112,232,114529,1,0
112,320,114731,5,2
192,320,114932,1,2
256,272,115134,1,2
320,320,115335,1,0
384,272,115537,1,0
448,320,115738,1,0
448,240,115940,1,2
448,240,116041,1,2
448,240,116141,1,2
448,160,116343,5,0
448,80,116544,1,0
448,80,116645,1,0
448,80,116746,2,0,B|448:80|272:80,1,160
288,160,117350,1,0
288,160,117451,1,0
288,160,117552,2,0,B|288:160|96:160,2,160
360,120,118559,1,0
360,120,118660,1,0
360,120,118761,2,0,B|360:120|360:216|288:288,1,160
192,208,119365,5,0
192,128,119567,1,0
192,48,119768,1,0
192,48,119869,1,0
192,48,119970,2,2,B|192:48|112:48|112:112|112:176,1,160
112,240,120574,2,2,B|112:240|200:240,2,80
112,320,121179,1,0
192,320,121380,1,2
192,320,121481,1,2
192,320,121582,2,2,B|192:320|271:340|260:248|336:248,2,160
168,224,122589,5,0
168,144,122791,2,0,B|168:144|256:144|256:32,1,160
336,32,123395,1,0
384,96,123597,1,2
336,200,123899,1,0
336,200,124000,1,0
384,264,124201,1,0
440,200,124403,2,2,B|440:200|479:267|452:326|400:336,1,160
328,328,125007,1,0
256,296,125209,1,2
256,176,125511,1,2
256,176,125611,1,2
256,96,125813,1,2
184,160,126014,5,0
184,160,126115,1,0
184,160,126216,1,0
112,128,126417,2,0,B|112:128|32:80,2,80
256,192,127223,1,0
256,192,127626,12,4,129238
