osu file format v5

[General]
AudioFilename: 03 Spaceman.mp3
AudioLeadIn: 0
PreviewTime: -1
Countdown: 1
SampleSet: Soft
StackLeniency: 0.7
Mode: 0
LetterboxInBreaks: 1
EditorBookmarks: 164485

[Metadata]
Title:Spaceman
Artist:The Killers
Creator:eee
Version:eeeasy
Source:
Tags:

[Difficulty]
HPDrainRate:6
CircleSize:3
OverallDifficulty:3
SliderMultiplier:1.1
SliderTickRate:2

[Events]
//Background and Video events
0,0,"spaceman.jpg"
//Break Periods
2,68191,69019
2,101253,113232
2,131196,132392
2,164612,176239
//Storyboard Layer 0 (Background)
//Storyboard Layer 1 (Failing)
//Storyboard Layer 2 (Passing)
//Storyboard Layer 3 (Foreground)
//Storyboard Sound Samples
//Background Colour Transformations
3,100,255,255,255

[TimingPoints]
25427,394.762813342983,4,2,0,100,1
50500,394.762813342983,4,1,0,80,0
177400,394.762813342983,4,2,0,59,0
195994,789.525626685966,4,2,0,83,1
205468,394.762813342983,4,2,0,80,1
207047,394.762813342983,4,1,0,71,0

[Colours]
Combo1 : 255,242,242
Combo2 : 140,244,228
Combo3 : 233,228,50

[HitObjects]
80,96,25821,2,0,B|48:240|416:256,1,385
432,176,27598,6,0,B|336:120|248:160,1,165
80,64,28979,5,0
168,64,29374,1,0
296,64,29966,1,0
384,64,30361,1,0
384,152,30756,2,0,B|336:200|272:152,2,110
432,48,31940,6,0,B|352:160|480:144|320:320,2,275
344,48,34309,2,0,B|280:96,1,55
112,96,35296,5,0
200,96,35690,1,0
328,96,36282,1,0
328,184,36677,1,0
328,272,37072,1,2
416,272,37467,1,4
416,184,37862,1,4
440,96,38256,6,0,B|312:192|312:192|280:80|168:192,1,330,0|4
136,248,39835,1,2
80,176,40230,6,0,B|80:128|144:128|160:144|176:176|240:144,1,165,0|2
416,128,41612,5,0
416,216,42007,1,0
280,216,42599,1,0
344,272,42993,1,0
272,320,43388,1,0
208,264,43783,2,0,B|160:312|128:232|96:264,1,110
96,344,44572,6,0,B|48:296|48:88|48:120|208:120,1,330
272,112,46152,1,0
256,192,47731,12,0,48915
112,192,50691,5,0
256,96,51481,2,0,B|256:344,1,220
160,192,53849,6,0,B|96:192|40:192,4,110
248,192,55823,2,0,B|328:192|384:192,3,110
448,192,57402,1,0
448,280,57797,6,0,B|200:280,1,220
80,224,59771,5,0
80,136,60166,2,0,B|80:72,5,55
168,72,61547,2,0,B|248:24|392:120,1,220
408,232,62929,5,0
352,296,63324,1,0
296,232,63718,1,0
240,296,64113,2,0,B|160:296|128:232,1,110
96,176,64903,6,0,B|64:128|112:112,3,55
168,96,65890,1,0
256,96,66284,1,0
344,96,66679,1,0
472,96,67271,2,0,B|472:336,1,220
304,320,70429,5,0
192,320,71022,1,0
192,320,71416,1,0
192,320,71811,1,0
256,192,73390,12,0,75956
80,208,76351,5,0
144,152,76746,1,0
216,200,77140,1,0
272,128,77535,1,8
344,184,77930,1,8
408,120,78325,1,8
432,288,79509,5,0
344,288,79904,2,0,B|216:288,3,110,8|4|0|8
144,288,81483,1,8
80,80,82667,5,0
80,168,83062,1,0
152,216,83457,1,0
240,208,83851,2,0,B|320:192|352:144,3,110,0|4|8|8
176,192,85825,5,0
256,224,86220,1,0
336,192,86615,1,0
256,192,87009,12,0,88589
224,80,88983,6,0,B|112:160|112:176|144:240|160:240|240:192,1,275
304,136,90365,1,8
376,80,90760,6,0,B|456:144|440:224,1,165
296,328,92141,5,0
208,328,92536,1,0
296,224,93128,1,0
208,224,93523,1,0
136,168,93918,1,0
136,80,94313,2,0,B|216:160,1,110
304,112,95102,6,0,B|416:192|416:208|384:272|368:272|224:176,1,330
160,112,96681,1,0
64,112,97076,6,0,B|80:240|144:256,1,165
304,304,98458,5,0
384,304,98852,1,0
304,200,99445,1,0
392,200,99839,1,0
392,112,100234,1,0
304,112,100629,1,0
304,200,101024,1,0
96,160,114643,6,0,B|208:64|160:240|304:208,1,220
400,64,116617,5,0
400,152,117011,1,0
400,328,117801,2,0,B|272:328,1,110
208,288,118591,2,0,B|208:176,1,110
120,176,119380,2,0,B|120:304,1,110
208,288,120170,1,0
384,288,120959,6,0,B|512:208|384:96,1,220
256,192,123328,12,0,126486
112,112,126881,5,0
200,112,127275,1,8
288,112,127670,1,8
376,112,128065,2,0,B|344:192|360:192|392:192|392:208|344:240|344:256|392:256|392:272|328:336,2,220
376,112,129841,1,0
288,112,130236,2,0,B|64:112,1,220
80,240,133592,6,0,B|272:352|464:256,1,385
448,128,135565,1,0
448,128,135960,1,0
448,128,136355,1,0
448,128,136750,2,0,B|320:0|176:48,2,275
312,312,139513,5,0
224,312,139908,1,0
224,224,140302,1,0
312,224,140697,1,0
312,136,141092,1,0
224,136,141487,1,0
80,96,142671,5,0
168,96,143066,2,0,B|296:96,3,110,8|4|0|8
368,96,144645,1,8
432,304,145829,5,0
432,216,146224,1,0
360,168,146619,1,0
272,160,147013,2,0,B|192:176|160:224,3,110,0|4|8|8
336,192,148987,5,0
256,152,149382,1,0
176,192,149777,1,0
256,192,150172,12,0,151751
96,256,152145,5,0
184,256,152540,1,0
96,256,152935,1,0
96,168,153330,1,0
184,168,153724,1,0
184,168,154119,1,0
272,160,154514,2,0,B|272:272,1,110
360,272,155303,5,0
448,272,155698,1,0
448,184,156093,1,0
448,96,156488,1,0
360,96,156883,1,0
360,184,157277,1,0
80,288,158462,5,0
128,216,158856,1,0
200,160,159251,1,0
280,128,159646,2,0,B|312:240|472:176,3,220
440,96,162409,1,0
352,88,162804,1,0
256,192,162903,12,0,164383
64,208,177805,6,0,B|240:48|384:272,1,385
312,320,179581,1,0
176,304,180174,2,0,B|112:240|96:96|304:64,1,330
320,56,181555,1,0
400,304,183726,5,0
312,304,184121,1,0
224,304,184516,1,0
136,304,184911,2,0,B|104:176|168:64,2,220
224,304,186884,5,0
312,304,187279,1,0
400,304,187674,2,0,B|448:240,1,55
400,304,190043,5,0
312,304,190437,1,0
224,304,190832,1,0
136,304,191227,2,0,B|104:176|168:64,2,220
224,304,193201,5,0
312,304,193595,1,0
400,304,193990,2,0,B|448:240,1,55
416,128,194780,5,0
328,128,195175,1,0
240,128,195569,2,0,B|176:128,1,55
96,208,196783,6,0,B|96:288|160:288|176:272,1,110
264,280,198559,2,0,B|264:184,1,82.5
264,112,199941,6,0,B|264:240,1,110
152,152,201915,2,0,B|152:232,1,55
256,64,203494,6,0,B|256:80|256:192,1,110
48,176,206060,6,0,B|336:176,3,275
384,288,209415,5,0
296,288,209810,1,0
208,288,210205,1,0
296,288,210599,1,0
296,200,210994,2,0,B|296:88,2,110,0|0|0
208,200,212178,5,0
208,288,212573,1,0
296,288,212968,1,0
208,288,213363,1,0
296,288,213758,1,0
296,200,214152,2,0,B|296:88,2,110
296,88,215337,5,0
208,88,215731,1,0
120,88,216126,1,0
120,176,216521,1,0
120,264,216916,1,0
120,352,217310,1,0
208,352,217705,1,0
272,256,218495,6,0,B|272:144,3,110
240,96,219876,2,0,B|304:96,6,55,0|0|0|0|2|8|8
384,184,221653,5,0
384,96,222048,1,0
296,96,222442,1,0
208,96,222837,1,0
296,96,223232,1,0
296,184,223627,2,0,B|296:296,2,110,0|0|0
208,184,224811,5,0
208,96,225206,1,0
296,96,225600,1,0
208,96,225995,1,0
296,96,226390,1,0
296,184,226785,2,0,B|296:296,2,110
296,296,227969,5,0
208,296,228364,1,0
120,296,228759,1,0
120,208,229153,1,0
120,120,229548,1,0
120,32,229943,1,0
208,32,230338,1,0
272,128,231127,6,0,B|272:240,3,110
256,192,232706,12,0,233890
