osu file format v5

[General]
AudioFilename: 03 Spaceman.mp3
AudioLeadIn: 0
PreviewTime: -1
Countdown: 1
SampleSet: Soft
StackLeniency: 0.7
Mode: 0
LetterboxInBreaks: 1
EditorBookmarks: 162933,164485

[Metadata]
Title:Spaceman
Artist:The Killers
Creator:eee
Version:Hard
Source:
Tags:

[Difficulty]
HPDrainRate:6
CircleSize:5
OverallDifficulty:6
SliderMultiplier:1.4
SliderTickRate:2

[Events]
//Background and Video events
0,0,"spaceman.jpg"
//Break Periods
2,101251,109703
2,164390,176250
//Storyboard Layer 0 (Background)
//Storyboard Layer 1 (Failing)
//Storyboard Layer 2 (Passing)
//Storyboard Layer 3 (Foreground)
//Storyboard Sound Samples
//Background Colour Transformations
3,100,255,255,255

[TimingPoints]
25427,394.762813342983,4,2,0,100,1
50600,394.762813342983,4,1,0,80,0
177320,394.762813342983,4,2,0,59,0
195994,789.525626685966,4,2,0,100,1
205468,394.762813342983,4,2,0,100,1
206600,394.762813342983,4,1,0,60,0
207550,394.762813342983,4,1,0,81,0

[Colours]
Combo1 : 234,234,234
Combo2 : 34,226,236
Combo3 : 227,232,62

[HitObjects]
256,192,25426,1,0
96,96,25821,5,0
168,96,26019,1,0
240,96,26216,1,0
312,96,26413,2,2,B|400:96,1,70
448,96,26808,2,2,B|512:152|456:224|491:253|384:352,1,280,0|2
328,336,27795,5,2
256,336,27992,1,2
184,336,28190,1,2
384,80,28782,5,0
384,152,28979,1,0
384,224,29177,1,0
336,272,29374,2,0,B|324:316|272:256,1,70
208,192,29966,5,0
64,192,30361,1,0
64,48,30756,1,0
200,48,31151,2,0,B|312:64|304:144,1,140,0|2
288,336,31940,5,0
216,336,32137,1,0
144,336,32335,1,0
88,288,32532,1,2
72,216,32730,1,2
112,80,33124,2,0,B|192:0|384:48,1,280,0|2
408,104,34111,5,0
432,168,34309,1,2
432,240,34506,1,2
320,112,35098,5,0
272,64,35296,1,0
200,64,35493,1,0
152,120,35690,1,0
168,184,35888,2,0,B|240:216|328:168,3,140,0|0|0|0
312,320,37467,1,0
168,320,37862,1,0
32,272,38256,5,0
88,232,38454,1,0
136,184,38651,1,0
192,144,38848,1,0
168,80,39046,1,0
304,80,39441,2,0,B|432:80|384:304|288:272,1,280
232,280,40427,5,0
160,272,40625,1,0
96,240,40822,1,0
120,64,41414,5,0
152,128,41612,1,0
184,64,41809,1,0
216,128,42007,1,0
248,64,42204,1,0
344,64,42599,2,0,B|288:200|480:160|400:344,1,280
272,312,43783,1,0
208,280,43980,1,0
144,240,44178,1,0
48,112,44572,5,0
96,64,44770,1,0
144,112,44967,1,0
192,64,45165,1,0
264,64,45362,2,0,B|456:64|488:200,1,280
416,320,46546,5,0
352,320,46744,1,0
288,320,46941,1,0
224,320,47138,1,0
96,112,47731,5,0
128,168,47928,1,0
168,224,48125,1,0
224,264,48323,1,0
352,312,48718,2,0,B|400:344|448:312,4,70,0|0|0|8|8
352,160,49902,2,0,B|408:128|480:208,2,140,2|4|8
224,216,51086,5,0
88,264,51481,6,0,B|48:184|104:128,1,140
216,64,52270,2,0,B|160:176|352:120|344:136|192:208|192:240|344:312,1,350
408,312,53455,1,0
392,176,53849,6,0,B|392:232|472:248|408:320,2,140,0|8|0
384,40,55034,1,8
240,40,55428,2,8,B|88:40,1,140,8|8
96,176,56218,2,0,B|40:240|40:264|112:288,2,140,8|8|0
232,168,57402,5,8
328,64,57797,6,0,B|440:128|344:336,1,280
216,344,58981,1,0
80,312,59376,1,0
80,208,59771,5,0
136,168,59968,1,0
192,128,60166,1,0
248,88,60363,1,2
320,88,60560,1,2
392,88,60758,2,4,B|392:240,2,140,4|6|4
256,192,61646,12,0,62534
48,216,62929,5,0
48,288,63126,1,0
120,288,63324,1,4
120,216,63521,1,4
192,216,63718,1,4
312,288,64113,2,8,B|392:280|392:176,1,140
432,80,64903,5,0
368,80,65100,2,2,B|192:80,1,140
112,80,65890,1,0
112,192,66284,1,0
112,304,66679,2,4,B|352:304,1,210
384,304,67469,2,2,B|568:240|184:216|400:48,1,350,2|8
256,56,68850,5,8
112,56,69245,1,8
112,192,69640,1,4
296,192,70429,5,0
256,136,70627,1,0
208,192,70824,1,0
256,248,71022,2,4,B|256:344|368:360,2,140
224,136,72403,6,0,B|104:48|152:16|360:16|464:32|328:144,1,420
296,200,73785,1,0
248,248,73982,1,0
184,272,74180,2,0,B|128:272,12,35,0|0|0|0|0|0|0|0|0|0|0|0|0
152,208,75561,5,2
104,152,75759,5,8
144,96,75956,5,8
208,64,76154,5,0
272,64,76351,2,0,B|432:64,1,140
480,64,76943,1,0
480,136,77140,1,0
480,208,77338,1,0
480,280,77535,2,0,B|432:360|352:264,2,140,0|8|0
368,280,78719,5,8
240,336,79114,5,8
168,336,79312,5,8
168,264,79509,2,0,B|168:104,1,140,0|8
168,56,80101,1,0
240,56,80299,1,8
312,56,80496,1,8
312,128,80693,2,0,B|152:128,2,140,0|8|0
384,128,81680,5,8
424,184,81878,1,8
384,240,82075,1,2
432,288,82272,1,2
368,320,82470,5,8
296,320,82667,1,8
152,320,83062,1,8
48,216,83457,1,8
200,216,83851,5,8
200,216,84049,1,8
200,136,84246,1,8
200,136,84444,1,8
200,56,84641,2,8,B|200:216,1,140,0|8
256,336,85628,5,0
256,256,85825,2,0,B|256:112,3,140,0|8|0|8
184,112,87207,5,0
184,184,87404,2,8,B|184:264,1,70
112,256,87799,1,4
40,256,87996,2,2,B|40:168,1,70,2|2
112,184,88391,1,4
40,88,88983,5,0
112,88,89181,1,0
184,88,89378,1,0
256,88,89575,2,0,B|400:88|400:88|400:232,1,280
296,320,90760,5,0
368,320,90957,1,0
296,320,91155,1,0
368,320,91352,1,0
432,64,91944,5,0
432,136,92141,1,0
360,136,92339,1,0
360,64,92536,1,0
288,64,92734,2,0,B|192:176|192:160|288:304,1,280
448,352,93918,5,0
448,192,94313,1,0
448,32,94707,1,0
256,48,95102,5,0
256,120,95300,1,0
256,192,95497,1,0
256,264,95694,1,0
256,336,95892,1,0
184,192,96286,5,0
320,192,96681,1,0
352,48,97076,5,0
288,48,97273,1,0
224,48,97471,1,0
160,48,97668,1,0
40,272,98260,5,0
88,320,98458,1,0
152,336,98655,1,0
224,336,98852,1,0
288,320,99050,2,0,B|416:288|480:112,1,280
336,88,100234,1,2
192,88,100629,1,8
48,88,101024,1,0
128,192,110893,5,0
200,192,111090,1,0
272,192,111287,1,0
344,192,111485,1,0
416,192,111682,2,0,B|416:272,2,70
48,264,113261,6,0,B|48:344,2,70
72,200,113853,5,0
136,72,114248,5,8
272,72,114643,2,0,B|416:72|416:136,2,140,0|2|0
208,104,115630,1,8
152,144,115827,1,8
104,192,116025,1,8
80,256,116222,1,8
128,312,116419,5,2
200,312,116617,1,2
336,304,117011,2,0,B|416:280|416:184,1,140
320,304,117801,2,0,B|400:280|400:184,2,140
192,304,118985,5,8
192,160,119380,1,8
312,224,119775,2,2,B|472:224,1,140
448,328,120564,5,8
448,120,120959,6,0,B|272:24|160:104,1,280,0|4
80,208,122143,5,8
80,280,122341,1,8
136,320,122538,1,4
192,280,122736,1,2
200,208,122933,1,2
144,160,123130,5,0
144,88,123328,1,0
280,88,123722,1,0
352,88,123920,2,8,B|352:256,1,140
456,320,124709,2,2,B|456:32,1,280
64,48,126091,5,8
104,104,126288,1,8
144,48,126486,1,8
184,104,126683,1,8
184,176,126881,2,2,B|184:320,2,140
320,32,128065,5,8
392,104,128262,2,2,B|248:104,2,140
392,176,129249,1,8
392,248,129447,1,8
392,320,129644,1,8
336,360,129841,2,2,B|192:360|32:152,1,350
72,104,131026,1,8
416,48,131618,5,0
272,48,132012,1,8
216,88,132210,1,8
280,120,132407,1,8
416,120,132802,1,0
432,312,133592,5,0
360,312,133789,1,0
288,312,133986,1,0
216,312,134184,2,2,B|72:312,2,140
368,64,135565,5,0
224,64,135960,1,0
80,64,136355,1,0
80,192,136750,5,0
152,192,136947,1,0
224,192,137144,1,0
296,192,137342,2,0,B|376:192,4,70
256,192,138329,12,0,139118
200,320,139316,5,8
272,320,139513,2,8,B|432:320,1,140
480,320,140105,1,8
480,248,140302,1,8
480,176,140500,1,8
480,104,140697,2,8,B|432:24|352:120,2,140,0|8|0
368,104,141882,5,8
240,48,142276,5,8
168,48,142474,5,8
168,120,142671,2,0,B|168:280,1,140,0|8
168,328,143263,1,0
240,328,143461,1,0
312,328,143658,1,0
312,256,143855,2,0,B|152:256,2,140,0|8|0
384,256,144842,5,8
424,200,145040,1,8
384,144,145237,1,2
432,96,145434,1,2
368,64,145632,5,2
296,64,145829,1,8
152,64,146224,1,8
48,168,146619,1,8
200,168,147013,5,8
200,168,147211,1,8
200,248,147408,1,8
200,248,147606,1,8
200,328,147803,2,8,B|200:168,1,140,0|8
256,48,148790,5,0
256,128,148987,2,0,B|256:272,3,140,0|8|0|8
184,272,150369,5,0
184,200,150566,1,8
184,128,150764,1,8
112,128,150961,1,4
40,128,151158,1,2
40,200,151356,1,0
112,200,151553,1,4
112,272,151751,5,8
40,272,151948,1,4
40,344,152145,2,8,B|216:344,1,140
248,344,152738,1,8
320,344,152935,1,8
320,272,153132,1,8
248,272,153330,2,8,B|248:112,2,140
320,272,154317,5,8
320,200,154514,1,8
320,128,154711,1,2
392,128,154909,1,2
392,56,155106,5,4
320,56,155303,2,0,B|176:56,1,140
112,56,155896,1,4
112,56,156093,1,4
112,56,156290,1,4
112,128,156488,2,0,B|112:272,2,140
40,128,157475,5,8
40,200,157672,1,8
40,128,157869,1,8
40,200,158067,1,8
40,272,158264,5,4
40,272,158462,2,0,B|40:352|40:352|120:352,1,140
240,344,159251,1,0
376,344,159646,1,8
376,272,159843,1,8
376,200,160041,1,8
376,128,160238,1,8
376,56,160435,2,2,B|376:232,1,140
256,64,161422,5,0
256,136,161620,2,0,B|256:296,3,140
280,304,162903,5,8
312,304,163001,1,8
344,288,163100,1,8
368,264,163199,1,8
384,232,163297,1,8
392,200,163396,1,8
400,168,163495,1,8
408,136,163593,1,0
376,72,163791,5,2
304,64,163988,5,8
232,64,164186,5,8
96,192,177410,5,2
96,48,177805,1,2
232,48,178200,1,2
304,48,178397,1,2
376,48,178594,1,2
448,48,178792,2,2,B|448:344,1,280,2|2
344,328,179976,5,2
272,328,180174,2,2,B|112:328,3,140
112,256,181555,1,0
240,200,181950,5,2
376,200,182345,1,2
376,56,182739,1,8
376,128,182937,1,8
56,80,183726,5,0
192,80,184121,1,0
328,80,184516,1,0
464,80,184911,1,0
464,152,185108,2,0,B|464:328,1,140,0|0
288,336,186095,5,0
216,336,186292,2,0,B|104:336|56:192,1,210,0|0
104,80,187279,1,0
240,72,187674,2,0,B|240:168,1,70,0|0
360,72,188266,5,0
360,208,188661,1,2
216,208,189056,1,4
72,208,189450,1,8
144,208,189648,1,8
56,80,190043,5,0
192,80,190437,1,0
328,80,190832,1,0
464,80,191227,1,0
464,152,191424,2,0,B|464:328,1,140
288,336,192411,5,0
216,336,192609,2,0,B|104:336|56:192,1,210,0|4
104,80,193595,1,4
240,72,193990,2,4,B|240:168,1,70
448,208,194780,5,0
384,304,195175,1,0
240,304,195569,2,4,B|240:224,1,70,2|4
128,95,196783,6,0,B|149:40|194:62,1,70
242,86,197573,1,8
302,121,197967,1,8
376,192,198559,5,0
376,224,198757,1,0
360,288,199152,2,0,B|336:328|296:304,1,70,0|8
176,272,199941,6,0,B|96:224|240:176|113:88,1,210
49,91,201520,1,0
119,91,201915,1,0
188,93,202310,1,0
376,56,203494,6,0,B|456:88|480:152|480:256|400:296,1,280
288,336,205468,1,0
144,304,205862,5,0
144,304,206060,1,0
144,304,206257,1,0
144,304,206454,1,0
80,304,206652,5,0
80,304,206849,1,0
80,304,207047,1,0
80,304,207244,1,0
80,232,207441,1,0
80,168,207639,5,4
152,168,207836,1,4
152,96,208033,1,4
80,96,208231,1,4
80,24,208428,1,12
152,24,208626,1,12
224,24,208823,5,8
224,96,209020,2,8,B|224:256,1,140
152,240,209613,1,8
152,312,209810,1,8
224,312,210007,1,8
296,312,210205,2,8,B|296:257|296:168,2,140
400,312,211389,5,8
400,192,211784,5,8
400,120,211981,5,0
400,48,212178,2,0,B|240:48,1,140
256,120,212771,1,0
184,120,212968,1,0
184,49,213165,1,0
120,48,213363,2,0,B|241:45|248:128,2,140
120,120,214350,5,2
120,192,214547,1,8
120,264,214744,1,8
120,336,214942,1,8
192,336,215139,5,0
264,336,215337,1,0
400,336,215731,1,0
400,192,216126,1,0
400,48,216521,5,8
400,48,216718,1,8
328,48,216916,1,8
328,48,217113,1,8
256,48,217310,2,2,B|256:192,1,140
256,336,218297,5,0
256,272,218495,2,0,B|256:128,3,140,0|8|0|8
184,128,219876,5,8
184,200,220074,1,2
184,272,220271,1,2
112,272,220468,1,0
40,272,220666,1,0
40,200,220863,1,4
112,200,221061,1,4
112,128,221258,5,8
40,128,221455,1,4
40,56,221653,2,0,B|216:56,1,140
248,56,222245,1,0
320,56,222442,1,0
320,128,222640,1,0
248,128,222837,2,0,B|248:288,2,140
320,128,223824,5,0
320,200,224021,1,8
320,272,224219,1,8
392,272,224416,1,8
392,344,224613,5,0
320,344,224811,2,0,B|176:344,1,140
112,344,225403,1,4
112,344,225600,1,4
112,344,225798,1,4
112,272,225995,2,0,B|112:128,2,140
40,272,226982,5,8
40,200,227179,1,8
40,272,227377,1,8
40,200,227574,1,8
40,128,227772,5,4
40,128,227969,2,0,B|40:48|40:48|120:48,1,140
240,56,228759,1,0
376,56,229153,1,0
376,128,229351,1,0
376,200,229548,1,0
376,272,229745,1,0
376,344,229943,2,0,B|376:168,1,140
256,320,230732,5,0
256,214,231127,2,0,B|256:54,3,140
256,192,232410,12,0,233890
