osu file format v6

[General]
AudioFilename: 08. Neon Tiger.mp3
AudioLeadIn: 0
PreviewTime: 94987
Countdown: 1
SampleSet: Normal
StackLeniency: 0.7
Mode: 0
LetterboxInBreaks: 1

[Editor]
DistanceSpacing: 0.800000011920929
BeatDivisor: 4
GridSize: 8

[Metadata]
Title:Neon Tiger
Artist:The Killers
Creator:EEeee
Version:eee!!!
Source:
Tags:

[Difficulty]
HPDrainRate:7
CircleSize:5
OverallDifficulty:6
SliderMultiplier:2.3
SliderTickRate:1

[Events]
//Background and Video events
Video,-5400,"The Killers - Neon Tiger - Later with Jools Holland.avi"
0,0,"tiger-regal.jpg"
//Break Periods
2,45526,50138
2,67250,72207
2,100698,104965
2,128284,132724
2,164147,170828
//Storyboard Layer 0 (Background)
//Storyboard Layer 1 (Fail)
//Storyboard Layer 2 (Pass)
//Storyboard Layer 3 (Foreground)
//Storyboard Sound Samples
//Background Colour Transformations
3,100,163,162,255

[TimingPoints]
3947,689.655172413794,4,1,0,79,1,0
95219,-100,4,1,0,28,0,0
96081,-200,4,1,0,30,0,0
96685,-100,4,1,0,30,0,0
97547,-200,4,1,0,30,0,0
98064,-100,4,1,0,30,0,0
105873,-100,4,1,0,47,0,0
116759,-100,4,1,0,71,0,0
168521,-100,4,1,0,0,0,0

[HitObjects]
192,72,4291,1,0
304,72,4636,1,8
248,168,4981,1,0
248,224,5153,2,0,B|248:296|248:296|160:296|128:240,1,172.5
104,240,5843,1,0
104,184,6015,1,8
120,32,6360,5,0
200,112,6705,1,0
288,32,7050,1,0
368,112,7395,1,8
312,208,7740,1,0
224,288,8084,5,0
112,280,8429,1,0
88,224,8602,1,0
112,168,8774,1,8
192,88,9119,2,0,B|264:40|328:96,1,115,0|4
376,160,9809,5,0
336,264,10153,1,8
224,256,10498,1,0
168,232,10671,1,0
224,72,11015,2,0,B|320:24|408:104,1,172.5,0|8
432,192,11878,1,0
424,248,12050,1,0
408,304,12222,1,0
184,368,12912,1,8
296,352,13257,1,0
152,40,14291,1,10
184,88,14464,1,2
216,136,14636,1,6
120,176,14981,5,0
64,280,15326,1,0
176,248,15671,1,8
272,192,16015,1,0
304,144,16188,2,0,B|352:88|320:64|280:56|224:112,1,172.5
176,136,16878,1,0
48,256,17395,1,0
144,320,17740,1,0
248,280,18084,1,0
352,328,18429,1,8
464,288,18774,1,0
448,176,19119,5,0
368,96,19464,1,0
312,80,19636,1,2
256,80,19809,1,8
200,88,19981,1,0
144,104,20153,1,2
96,136,20326,1,2
64,184,20498,1,4
80,296,20843,5,0
192,296,21188,1,8
248,200,21533,1,0
304,200,21705,2,0,B|432:240|456:96,1,172.5
416,88,22395,1,0
248,56,22912,1,0
144,104,23257,1,0
144,104,23947,1,8
176,216,24291,1,0
368,344,24981,5,0
384,288,25153,1,2
384,288,25326,1,8
376,232,25498,1,0
352,176,25671,1,2
352,176,25843,1,2
352,176,26015,1,4
264,96,26360,5,0
152,96,26705,1,8
152,152,26878,2,0,B|144:264|192:288,1,115
280,296,27567,1,0
328,272,27740,1,0
320,160,28084,1,8
304,104,28257,1,0
248,80,28429,1,0
168,160,28774,6,0,B|96:176|72:264|88:264,1,115
128,272,29291,1,0
320,296,29809,2,0,B|264:256|264:240|296:240|344:240|368:224|336:192,1,115
376,192,30326,1,0
352,136,30498,1,0
240,104,30843,1,8
128,112,31188,1,0
80,144,31360,1,0
120,184,31533,1,0
200,256,31878,5,0
240,296,32050,1,0
296,280,32222,1,8
360,184,32567,1,0
336,128,32740,1,0
232,72,33084,1,0
120,88,33429,1,0
96,136,33602,1,8
120,248,33947,1,0
152,288,34119,1,0
200,264,34291,1,0
248,240,34464,5,0
280,192,34636,1,0
304,144,34809,1,0
272,96,34981,1,8
216,80,35153,1,0
120,144,35498,1,0
88,192,35671,1,0
112,240,35843,2,0,B|136:296|216:336|368:280|416:232,1,287.5
424,160,37050,2,0,B|400:96|304:80,1,115,4|0
224,88,37740,2,0,B|152:96|136:128,1,57.5,8|0
120,128,38084,1,0
88,176,38257,1,0
80,232,38429,2,8,B|88:296|152:320|280:312,1,230,4|8
432,144,39809,5,0
344,64,40153,1,0
312,176,40498,1,8
200,208,40843,1,0
224,152,41015,1,0
224,96,41188,1,0
168,72,41360,1,0
136,120,41533,1,0
160,168,41705,1,0
200,208,41878,1,8
224,264,42050,5,0
256,312,42222,1,0
296,272,42395,2,0,B|360:224|400:88|256:64|184:96,1,287.5
104,184,43774,5,0
80,240,43947,2,0,B|104:328|160:304,3,115,0|0|8|0
208,288,45153,1,0
248,248,45326,1,4
440,152,51188,5,0
352,80,51533,1,8
240,80,51878,1,0
192,112,52050,1,0
104,184,52395,2,0,B|72:256|112:312|168:344|208:336,1,172.5,0|8
272,336,53257,1,0
328,320,53429,1,0
376,288,53602,1,0
336,176,53947,1,0
264,88,54291,2,0,B|184:40|112:104|144:72,1,115,8|0
104,288,55326,5,0
160,288,55498,1,0
216,288,55671,1,8
184,240,55843,1,0
128,240,56015,1,0
160,192,56188,1,0
216,192,56360,1,4
328,192,56705,5,0
440,192,57050,1,8
384,88,57395,1,0
336,56,57567,2,0,B|280:24|168:64,1,115
120,96,58257,1,0
80,136,58429,1,8
96,248,58774,1,0
152,264,58947,2,0,B|224:312|352:280,1,172.5
368,264,59636,1,0
392,208,59809,1,8
360,96,60153,1,0
56,280,60843,5,0
96,240,61015,1,0
144,264,61188,1,8
104,304,61360,1,0
56,280,61533,2,0,B|16:216|80:128,1,115,4|0
136,88,62222,5,0
240,48,62567,1,8
344,96,62912,1,0
336,152,63084,2,0,B|296:240,1,57.5
280,248,63429,1,0
232,280,63602,2,0,B|144:248,2,57.5,0|0|8
464,280,64636,5,0
464,168,64981,1,0
360,112,65326,1,8
248,96,65671,1,0
192,96,65843,1,0
136,96,66015,1,0
88,200,66360,1,0
96,256,66533,1,0
152,272,66705,1,8
264,240,67050,1,4
440,208,73257,5,0
344,272,73602,1,8
296,240,73774,1,0
216,160,74119,2,0,B|192:88|152:80|104:168|96:184,1,172.5,4|0
96,288,74981,1,8
200,336,75326,1,0
304,296,75671,1,0
360,200,76015,1,0
376,144,76188,2,0,B|392:88|336:72,1,57.5,0|8
256,56,76705,1,0
144,88,77050,5,0
128,144,77222,1,0
152,192,77395,1,0
264,192,77740,1,8
376,200,78084,1,0
400,248,78257,1,0
376,296,78429,1,0
320,296,78602,5,0
264,296,78774,1,0
208,296,78947,1,0
168,256,79119,1,8
152,200,79291,1,0
160,144,79464,1,0
208,112,79636,2,0,B|272:88|328:104,1,115,4|0
440,224,80498,5,8
336,280,80843,1,0
288,248,81015,1,0
240,216,81188,1,4
208,264,81360,5,0
168,304,81533,1,0
136,256,81705,1,0
112,200,81878,1,8
104,144,82050,1,0
200,80,82395,2,0,B|296:64|328:128,1,115,4|0
336,152,82912,1,0
272,248,83257,1,8
240,296,83429,5,0
200,256,83602,1,0
160,208,83774,1,0
200,80,83947,5,4
312,80,84291,1,0
240,296,84636,5,12
160,208,84981,1,0
408,192,85326,5,4
336,280,85671,1,0
160,208,86015,5,12
224,112,86360,1,0
280,208,86705,1,0
192,280,87050,5,0
136,280,87222,1,0
80,280,87395,1,8
80,224,87567,1,0
80,168,87740,1,0
80,112,87912,1,0
80,56,88084,1,4
136,56,88257,1,0
192,56,88429,1,0
248,56,88602,5,0
304,56,88774,1,8
360,56,88947,1,0
360,112,89119,1,0
360,168,89291,1,0
360,224,89464,1,4
360,280,89636,1,0
304,280,89809,2,0,B|168:280,1,115,0|8
48,176,90671,5,0
96,152,90843,1,0
200,96,91188,1,0
296,160,91533,1,8
200,224,91878,1,0
96,272,92222,1,4
120,320,92395,5,0
176,328,92567,1,0
232,328,92740,1,0
272,288,92912,1,8
352,208,93257,1,0
360,152,93429,1,0
352,96,93602,1,0
248,48,93947,1,0
144,104,94291,1,8
80,200,94636,1,0
192,208,94981,1,0
256,304,95326,5,0
304,272,95498,1,0
344,232,95671,1,0
360,176,95843,1,0
360,120,96015,1,0
328,72,96188,2,0,B|280:48|224:56,1,86.25
192,72,96878,5,0
152,112,97050,1,0
128,160,97222,1,0
128,216,97395,1,0
144,272,97567,2,0,B|192:312|248:288,1,86.25
280,288,98257,5,0
320,248,98429,1,0
336,192,98602,1,0
336,136,98774,1,0
336,80,98947,1,0
192,112,99464,1,0
256,192,99809,5,0
256,192,99924,1,0
256,192,100038,1,0
256,192,100153,1,0
256,192,100268,1,0
256,192,100383,1,0
256,192,100498,1,0
48,176,106015,5,0
152,136,106360,1,0
264,168,106705,1,0
376,136,107050,1,0
416,176,107222,2,0,B|448:248|408:296,1,115
368,320,107740,1,0
320,280,107912,1,0
272,320,108084,1,0
224,280,108257,1,0
184,320,108429,1,0
144,280,108602,1,0
184,232,108774,6,0,B|184:96,1,115,4|0
184,56,109291,1,0
240,56,109464,1,0
296,56,109636,1,0
296,112,109809,1,0
352,112,109981,1,0
352,168,110153,1,4
256,328,110498,1,0
168,168,110843,1,4
136,168,110958,5,0
104,168,111073,1,0
72,168,111188,1,0
72,200,111303,1,0
72,232,111418,1,0
72,264,111533,1,0
208,344,111878,5,0
248,304,112050,1,0
296,336,112222,1,0
344,304,112395,1,0
384,256,112567,1,0
392,200,112740,2,0,B|416:128|320:96,1,115,4|0
288,96,113257,1,0
256,144,113429,1,0
224,96,113602,1,0
192,144,113774,1,0
160,96,113947,1,0
128,144,114119,1,0
160,192,114291,1,0
256,192,114464,12,4,117050
208,56,117740,5,0
256,48,117912,1,0
304,48,118084,1,0
344,72,118257,2,0,B|368:128|344:160,5,57.5
344,216,119464,1,0
256,248,119809,5,0
208,256,119981,2,0,B|144:240,1,57.5,4|0
152,242,120326,1,0
112,216,120498,2,0,B|80:152|136:104,1,115,4|0
168,80,121015,2,0,B|216:40|376:64|376:72,1,172.5,4|0
376,72,121705,1,0
376,120,121878,1,8
416,144,122050,1,0
376,168,122222,1,0
376,216,122395,1,0
336,248,122567,5,4
376,264,122740,1,0
376,312,122912,1,0
336,296,123084,1,0
296,312,123257,1,8
200,312,123602,6,0,B|200:160,1,115
200,152,124119,1,0
200,152,124291,1,8
200,104,124464,1,8
200,104,124636,1,8
288,104,124981,1,0
256,192,125326,12,4,128084
128,88,133774,5,0
184,88,133947,2,0,B|184:168|272:192,1,115
240,240,134464,2,0,B|240:320|288:344,1,115
424,240,135326,1,0
424,128,135671,1,0
320,176,136015,1,0
216,128,136360,2,0,B|216:264,1,115,4|0
168,280,136878,2,0,B|168:160,1,115,4|0
168,104,137395,1,0
272,48,137740,5,8
328,48,137912,1,0
328,104,138084,1,8
384,104,138257,1,0
360,152,138429,1,8
328,200,138602,1,0
384,200,138774,1,0
360,248,138947,1,0
304,248,139119,1,8
248,248,139291,5,0
192,248,139464,1,8
136,248,139636,1,0
80,248,139809,2,0,B|80:96,1,115,8|0
80,80,140326,2,0,B|200:80,1,115
248,80,140843,1,2
360,80,141188,1,2
304,184,141533,1,2
304,296,141878,1,0
248,296,142050,5,4
208,248,142222,1,8
152,264,142395,1,0
120,216,142567,1,8
88,168,142740,1,4
256,192,142912,12,0,143947
424,48,144291,5,0
424,160,144636,1,4
256,192,144981,5,0
88,328,145326,5,0
88,216,145671,1,0
256,192,146015,5,4
424,320,146360,5,0
424,216,146705,1,0
256,192,147050,5,0
256,192,147395,1,4
152,168,147740,5,0
160,112,147912,1,0
192,72,148084,1,8
240,56,148257,1,0
288,56,148429,1,0
336,72,148602,1,0
368,112,148774,1,12
368,216,149119,1,0
352,264,149291,5,0
312,296,149464,1,0
264,312,149636,1,0
216,296,149809,1,0
168,272,149981,2,2,B|112:232|112:112|248:40,1,287.5,6|2
408,168,151533,1,0
360,256,151878,1,0
256,256,152222,1,0
304,168,152567,1,0
328,120,152740,2,0,B|344:56|264:40|192:96,1,172.5,0|0
160,120,153429,2,0,B|176:192|64:272,1,172.5,4|0
78,261,154291,1,4
240,320,154981,5,0
288,320,155153,2,0,B|352:320,1,57.5
400,320,155498,2,0,B|400:240,5,57.5,0|8|0|8|0|8
400,160,156705,1,0
400,56,157050,2,0,B|464:56,2,57.5,8|0|8
344,56,157567,6,8,B|272:48|216:144,1,115
208,136,158084,1,0
168,176,158257,2,0,B|120:224|112:256,6,57.5,4|0|0|8|0|8|0
240,232,159636,1,4
408,144,160498,5,0
360,120,160671,1,0
312,144,160843,1,0
264,120,161015,1,0
16,192,161878,1,0
248,192,162567,2,0,B|168:248|208:304|224:328|328:288|296:232|248:256,1,230,4|0
254,253,163602,1,0
254,253,163947,1,4
256,192,171878,12,0,174291
