osu file format v6

[General]
AudioFilename: 08. Neon Tiger.mp3
AudioLeadIn: 0
PreviewTime: 94987
Countdown: 1
SampleSet: Normal
StackLeniency: 0.7
Mode: 0
LetterboxInBreaks: 1

[Editor]
DistanceSpacing: 0.800000011920929
BeatDivisor: 4
GridSize: 8

[Metadata]
Title:Neon Tiger
Artist:The Killers
Creator:EEeee
Version:Normal
Source:
Tags:

[Difficulty]
HPDrainRate:4
CircleSize:4
OverallDifficulty:4
SliderMultiplier:1.4
SliderTickRate:1

[Events]
//Background and Video events
Video,-5400,"The Killers - Neon Tiger - Later with Jools Holland.avi"
0,0,"tiger-regal.jpg"
//Break Periods
2,46215,49523
2,164836,170558
//Storyboard Layer 0 (Background)
//Storyboard Layer 1 (Fail)
//Storyboard Layer 2 (Pass)
//Storyboard Layer 3 (Foreground)
//Storyboard Sound Samples
//Background Colour Transformations
3,100,163,162,255

[TimingPoints]
3947,689.655172413793,4,1,0,51,1,0
26021,-100,4,1,0,68,0,1
50849,-100,4,1,0,58,0,0
72918,-100,4,1,0,76,0,1
94815,-100,4,1,0,100,0,0
94987,-100,4,1,0,100,0,1
95127,-100,4,1,0,32,0,0
105849,-100,4,1,0,61,0,0
117024,-100,4,1,0,100,0,0
133608,-100,4,1,0,100,0,1
160332,-100,4,1,0,71,0,0
171539,-100,4,1,0,0,0,0

[HitObjects]
48,56,3947,2,0,B|48:208,1,140,0|8
160,192,5326,1,0
272,192,6015,1,8
384,192,6705,1,0
384,80,7395,1,8
496,80,8084,1,0
496,80,8429,2,0,B|496:128,2,35,0|0|8
496,192,9464,6,8,B|344:192,1,140,0|8
240,192,10843,1,0
128,192,11533,1,8
128,304,12222,1,0
240,304,12912,1,8
352,304,13602,1,0
352,304,13946,2,0,B|352:352,2,35
408,304,14636,6,0,B|440:192|400:72,1,210,0|8
320,24,16360,1,0
232,96,17050,1,8
120,96,17740,2,0,B|88:208|128:328,1,210
232,304,19464,2,0,B|232:256,2,35,0|0|8
344,304,20498,6,0,B|376:352|440:336|440:272|384:288,1,140,0|8
344,184,21878,2,0,B|376:232|440:216|440:152|384:168,1,140,0|8
344,64,23257,2,0,B|376:112|440:96|440:32|384:48,1,140,0|8
256,192,24291,12,8,25326
56,64,26015,6,0,B|232:64,1,140,4|8
200,176,27395,2,0,B|352:176,1,140,4|8
424,104,28774,2,0,B|424:280,1,140,4|8
424,296,29809,1,0
368,296,30153,1,0
312,296,30498,1,0
256,296,30843,2,0,B|160:296,2,70,8|0|0
256,184,32222,5,8
256,72,32912,2,0,B|400:72,1,140,0|8
488,136,34291,2,0,B|336:136,1,140,0|8
348,136,35326,1,0
348,136,35671,2,0,B|184:136,1,140,0|8
152,136,36705,5,0
96,136,37050,1,4
96,248,37740,1,8
208,248,38429,1,4
320,248,39119,1,8
432,248,39809,6,4,B|392:216|496:152|416:104,1,140,4|8
320,120,41188,1,0
264,120,41533,1,0
208,120,41878,5,8
152,120,42222,1,0
96,120,42567,1,4
96,232,43257,1,8
208,232,43947,2,0,B|424:232,1,210,4|0
418,232,45326,2,0,B|419:90,1,140,4|8
464,56,50843,6,0,B|464:208,1,140,0|8
352,192,52222,1,0
240,192,52912,1,8
128,192,53602,1,0
128,80,54291,1,8
16,80,54981,1,0
16,80,55326,2,0,B|16:128,2,35,0|0|8
16,192,56360,6,0,B|168:192,1,140,0|8
272,192,57740,1,0
384,192,58429,1,8
384,304,59119,1,0
272,304,59809,1,8
160,304,60498,1,0
160,304,60843,2,0,B|160:352,2,35,0|0|8
104,304,61533,6,0,B|72:192|112:72,1,210,0|8
184,24,63257,1,0
280,96,63947,1,8
392,96,64636,2,0,B|424:208|384:328,1,210
280,304,66360,2,0,B|280:256,2,35,0|0|8
168,304,67395,6,0,B|136:352|72:336|72:272|128:288,1,140,0|8
168,184,68774,2,0,B|136:232|72:216|72:152|128:168,1,140,0|8
168,64,70153,2,0,B|136:112|72:96|72:32|128:48,1,140,0|8
256,192,71188,12,8,72222
456,64,72912,6,0,B|280:64,1,140,0|8
312,176,74291,2,0,B|160:176,1,140,0|8
88,104,75671,2,0,B|88:280,1,140,0|8
88,296,76705,1,0
144,296,77050,1,0
200,296,77395,1,0
256,296,77740,2,0,B|352:296,2,70,8|0|0
256,184,79119,5,8
256,72,79809,2,0,B|112:72,1,140,0|8
24,136,81188,2,0,B|176:136,1,140,0|8
164,136,82222,1,0
164,136,82567,2,0,B|328:136,1,140,0|8
360,136,83602,5,0
416,136,83947,1,4
416,248,84636,1,8
304,248,85326,1,4
192,248,86015,1,8
80,248,86705,6,4,B|120:216|16:152|96:104,1,140,4|8
192,120,88084,1,0
248,120,88429,1,0
304,120,88774,5,8
360,120,89119,1,0
416,120,89464,1,0
416,232,90153,1,8
304,232,90843,2,0,B|88:232,1,210
94,232,92222,2,0,B|73:192|154:189|77:101,1,140,0|8
184,64,93602,1,0
296,64,94291,1,0
408,64,94981,5,4
408,176,95671,1,0
408,288,96360,1,0
296,288,97050,1,0
408,288,97740,1,0
408,176,98429,1,0
352,176,98774,5,0
296,176,99119,1,0
240,176,99464,1,0
184,176,99809,2,0,B|184:72|184:72|120:48,1,140
40,64,101188,5,0
40,176,101878,1,0
136,120,102567,1,0
136,232,103257,1,0
232,176,103947,5,0
232,232,104291,1,0
232,288,104636,2,0,B|232:360,2,70
344,288,106015,5,8
400,288,106360,1,0
456,288,106705,2,0,B|456:208,1,70
456,160,107395,5,8
400,160,107740,1,0
344,160,108084,2,0,B|344:80,1,70
288,88,108774,5,8
232,88,109119,1,0
176,88,109464,2,0,B|176:168,1,70
168,216,110153,5,8
112,216,110498,1,0
56,216,110843,2,0,B|56:136,1,70
56,88,111533,5,8
112,88,111878,1,0
168,88,112222,2,0,B|168:168,1,70
168,216,112912,5,8
168,272,113257,1,0
112,272,113602,2,0,B|112:352,1,70
168,344,114291,5,8
224,344,114636,1,0
280,344,114981,2,0,B|280:264,1,70
280,274,115671,2,0,B|368:274|400:226|392:178|256:82,1,280,8|4
160,96,117740,5,0
48,96,118429,1,4
48,208,119119,1,0
48,320,119809,5,4
160,320,120498,1,0
256,192,121188,12,0,124636
200,80,125326,5,0
200,80,125671,1,0
200,80,126015,1,0
312,80,126705,1,0
312,80,127050,1,0
312,80,127395,1,4
312,192,128084,5,0
312,192,128429,1,0
312,192,128774,1,0
200,192,129464,1,0
200,192,129809,1,0
200,192,130153,1,4
200,304,130843,5,0
200,304,131188,1,0
200,304,131533,1,0
312,304,132222,1,0
312,304,132567,1,0
312,304,132912,1,4
312,192,133602,6,4,B|136:192,1,140,4|0
232,96,134981,2,0,B|80:96,1,140,4|0
8,24,136360,2,0,B|8:200,1,140,4|0
8,216,137395,1,0
8,272,137740,1,4
64,272,138084,1,0
120,272,138429,2,0,B|216:272,2,70,0|0|4
232,272,139809,5,0
232,160,140498,2,0,B|376:160,1,140,4|0
304,72,141878,2,0,B|456:72,1,140,4|0
444,71,142912,1,0
444,71,143257,2,0,B|445:237,1,140,4|0
440,264,144291,5,0
384,264,144636,1,4
272,272,145326,1,0
160,272,146015,1,4
48,272,146705,1,0
48,160,147395,6,4,B|88:128|-16:64|64:16,1,140,4|0
160,32,148774,1,0
216,32,149119,1,0
272,32,149464,5,0
328,32,149809,1,0
384,32,150153,1,0
384,144,150843,1,0
384,256,151533,2,0,B|168:256,1,210
174,256,152912,2,0,B|153:216|234:213|157:125,1,140
48,128,154291,5,0
48,240,154981,1,0
48,296,155326,1,0
48,352,155671,2,0,B|224:352,1,140
296,352,157050,6,0,B|456:352,1,140
440,296,158084,1,0
440,240,158429,2,0,B|440:80,2,140,4|0|0
296,352,160498,6,0,B|456:352,1,140
440,296,161533,1,0
440,240,161878,2,0,B|440:80,2,140
256,192,163602,12,4,164636
256,192,171878,12,0,174291
