osu file format v6

[General]
AudioFilename: 08. Neon Tiger.mp3
AudioLeadIn: 0
PreviewTime: 94987
Countdown: 1
SampleSet: Normal
StackLeniency: 0.7
Mode: 0
LetterboxInBreaks: 1

[Editor]
DistanceSpacing: 1
BeatDivisor: 6
GridSize: 8

[Metadata]
Title:Neon Tiger
Artist:The Killers
Creator:EEeee
Version:Hard
Source:
Tags:

[Difficulty]
HPDrainRate:7
CircleSize:5
OverallDifficulty:6
SliderMultiplier:1.8
SliderTickRate:1

[Events]
//Background and Video events
Video,-5400,"The Killers - Neon Tiger - Later with Jools Holland.avi"
0,0,"tiger-regal.jpg"
//Break Periods
2,46215,49965
2,164147,170828
//Storyboard Layer 0 (Background)
//Storyboard Layer 1 (Fail)
//Storyboard Layer 2 (Pass)
//Storyboard Layer 3 (Foreground)
//Storyboard Sound Samples
//Background Colour Transformations
3,100,163,162,255

[TimingPoints]
3947,689.655172413793,4,1,0,51,1,0
26021,-100,4,1,0,68,0,1
50849,-100,4,1,0,58,0,0
72918,-100,4,1,0,76,0,1
94815,-100,4,1,0,100,0,0
94987,-100,4,1,0,100,0,1
95127,-100,4,1,0,32,0,0
105849,-100,4,1,0,61,0,0
117024,-100,4,1,0,100,0,0
133608,-100,4,1,0,100,0,1
160332,-100,4,1,0,71,0,0
171539,-100,4,1,0,0,0,0

[HitObjects]
48,32,1188,1,0
48,32,1360,1,0
48,120,1705,1,0
48,120,1878,1,0
48,208,2222,1,0
48,208,2395,1,0
48,296,2740,1,0
48,296,2912,1,0
136,296,3257,1,0
176,296,3429,1,0
216,296,3602,6,0,B|272:264|312:320|392:272,1,180
480,272,4636,1,8
480,184,4981,2,0,B|480:104,1,45
408,88,5498,2,0,B|408:168,1,45
320,136,6015,1,8
232,136,6360,1,0
144,136,6705,2,0,B|120:168|88:64|8:120|16:168|48:200|104:192|80:144,1,180,0|8
80,264,7740,2,0,B|184:264,1,90,0|0
256,264,8429,1,0
256,264,8602,1,0
256,264,8774,2,0,B|368:264,1,90,8|0
344,352,9464,5,0
432,352,9809,1,0
464,264,10153,1,8
464,176,10498,2,0,B|464:96,1,45
384,88,11015,2,0,B|384:168,1,45
296,136,11533,1,8
208,136,11878,1,0
120,136,12222,2,0,B|152:160|48:192|104:272|152:264|184:232|176:176|128:200,1,180,0|8
248,200,13257,2,0,B|352:200,1,90
336,288,13946,1,0
336,288,14119,1,0
336,288,14291,1,8
248,288,14636,6,0,B|152:288|152:288|152:352|152:344|72:344,1,180
24,344,15671,1,8
24,256,16015,1,0
24,256,16188,2,0,B|24:112,1,135
24,121,16878,2,0,B|168:120,1,135
248,120,17740,6,0,B|224:144|208:184|264:224|264:248|312:176|320:152|264:152|256:160,1,180,0|8
352,120,18774,2,0,B|328:144|312:184|368:224|368:248|416:176|424:152|368:152|360:160,1,180
375,156,19636,1,0
375,156,19809,2,0,B|438:92|438:92|506:167,1,180,8|0
496,248,20843,5,0
496,336,21188,1,8
408,336,21533,1,0
408,288,21705,2,0,B|264:288,1,135
224,288,22395,1,0
176,288,22567,1,8
88,288,22912,1,0
8,248,23257,2,0,B|128:104,1,180,0|8
96,192,24291,2,0,B|216:48,1,180
296,24,25326,1,8
296,24,25498,1,0
296,24,25671,1,0
296,24,25843,1,0
296,24,26015,6,0,B|296:152,1,90,4|0
296,114,26705,2,0,B|296:216,1,90,8|0
296,204,27395,2,0,B|296:304,1,90
384,296,28084,2,0,B|384:200,1,90,8|0
384,206,28774,2,0,B|384:112,1,90
384,116,29464,2,0,B|384:24,1,90,8|0
472,24,30153,2,0,B|472:136,1,90
472,114,30843,2,0,B|472:208,1,90,8|0
472,204,31360,5,0
472,204,31533,2,0,B|472:312,1,90,0|0
472,294,32050,1,0
472,294,32222,2,0,B|336:296,1,90,8|0
382,295,32740,1,0
382,295,32912,2,0,B|248:296,1,90
292,295,33429,1,0
292,295,33602,2,0,B|168:296,1,90,8|0
202,295,34119,5,0
202,295,34291,1,0
160,296,34464,1,0
160,296,34636,1,0
160,296,34809,1,0
160,296,34981,2,0,B|56:296,1,90,8|0
72,248,35498,1,4
72,208,35671,1,4
72,120,36015,2,4,B|176:120,1,90,4|8
248,120,36705,1,0
336,120,37050,6,0,B|432:120,1,90,4|0
424,208,37740,2,0,B|494:208|494:208|494:264,1,90,8|0
496,320,38429,2,0,B|426:320|426:320|426:376,1,90,4|0
336,344,39119,2,0,B|266:344|266:344|266:288,1,90,8|0
264,232,39809,1,4
264,144,40153,1,0
200,80,40498,1,12
144,144,40843,1,0
144,232,41188,1,4
144,320,41533,1,0
56,320,41878,5,8
56,320,42050,1,0
56,320,42222,1,0
56,320,42395,2,0,B|56:152,1,135,0|0
56,96,43257,1,8
56,96,43602,1,0
56,96,43947,2,0,B|240:96,1,180,0|8
328,96,44981,1,0
256,192,45326,12,4,46015
248,56,51015,5,0
248,56,51188,1,0
336,56,51533,1,8
424,56,51878,1,0
424,56,52050,1,0
336,56,52395,2,0,B|336:144,1,45
336,192,52912,1,8
248,192,53257,1,0
248,192,53429,2,0,B|288:160|280:288|240:320|160:288|160:248|160:224|224:224|232:232,1,225,0|8
216,144,54636,2,0,B|224:72|200:40|152:32|128:112|184:104,1,180
181,104,55498,1,0
181,104,55671,2,0,B|80:104,1,90,8|0
88,192,56360,5,0
88,192,56533,1,0
88,192,56705,2,0,B|62:257|102:297,1,90,0|8
168,232,57395,1,0
168,232,57567,1,0
168,232,57740,1,0
168,232,57912,1,0
168,232,58084,2,0,B|142:297|182:337,1,90,0|8
248,280,58774,1,0
248,280,58947,1,0
248,280,59119,1,0
248,280,59291,1,0
248,280,59464,2,0,B|280:216|336:256,1,90,0|8
408,248,60153,1,0
408,248,60326,1,0
408,248,60498,2,0,B|408:296,4,45,0|0|0|0|8
408,160,61533,6,4,B|408:48|408:48|320:48,1,180,4|0
248,48,62567,1,8
160,48,62912,1,0
160,48,63084,2,4,B|48:48|48:48|48:104,1,135,0|0
48,112,63774,2,0,B|48:192,5,45,0|8|0|0|0|0
48,248,64981,5,0
136,248,65326,1,8
136,336,65671,1,0
136,336,65843,1,0
224,336,66188,1,0
224,336,66360,1,0
224,336,66533,2,0,B|224:264,1,45,0|8
304,336,67050,2,0,B|304:144,1,180
392,160,68084,5,8
392,248,68429,1,0
392,248,68602,1,0
480,248,68947,1,0
480,248,69119,1,0
480,160,69464,1,8
480,72,69809,1,0
392,72,70153,1,0
304,72,70498,1,0
216,72,70843,5,8
128,72,71188,1,0
128,72,71360,1,0
128,160,71705,1,0
128,160,71878,2,0,B|32:160,1,90,0|8
38,160,72395,1,0
38,160,72567,2,0,B|40:264,1,90,0|4
40,336,73257,5,0
40,336,73602,2,0,B|152:336,1,90,8|0
130,336,74291,2,0,B|226:336,1,90
220,337,74981,2,0,B|316:337,1,90,8|0
310,337,75671,2,0,B|404:337,1,90
400,337,76360,2,0,B|492:337,1,90,8|0
490,337,77050,2,0,B|490:225,1,90
490,247,77740,2,0,B|490:153,1,90,8|0
490,157,78257,5,0
490,157,78429,2,0,B|490:49,1,90
490,67,78947,1,0
490,67,79119,2,0,B|354:65,1,90,8|0
400,66,79636,1,0
400,66,79809,2,0,B|266:65,1,90
310,66,80326,1,0
310,66,80498,2,0,B|186:65,1,90,8|0
220,66,81015,5,0
220,66,81188,1,0
178,65,81360,1,0
178,65,81533,1,0
178,65,81705,1,0
178,65,81878,2,0,B|74:65,1,90,8|0
88,112,82395,1,4
88,152,82567,1,4
88,240,82912,2,0,B|192:240,1,90,4|8
264,240,83602,1,0
352,240,83947,6,0,B|448:240,1,90,4|0
440,152,84636,2,0,B|510:152|510:152|510:96,1,90,8|0
512,40,85326,2,0,B|442:40|442:40|442:-16,1,90,4|0
352,16,86015,2,0,B|282:16|282:16|282:72,1,90,8|0
280,128,86705,1,4
280,216,87050,1,0
216,280,87395,1,12
152,216,87740,1,0
152,128,88084,1,4
152,40,88429,5,0
104,40,88602,1,0
56,40,88774,1,8
56,40,88947,1,0
56,40,89119,1,0
56,40,89291,2,0,B|56:208,1,135
56,264,90153,1,8
56,264,90498,1,0
56,265,90843,2,0,B|240:265,1,180,0|8
336,264,91878,1,0
256,192,92222,12,4,92912
168,88,93602,5,4
256,64,93947,1,0
256,112,94119,1,0
256,152,94291,1,0
256,192,94464,1,0
256,240,94636,1,0
256,280,94809,1,0
256,328,94981,1,4
344,328,95326,5,0
384,328,95498,1,0
384,280,95671,1,0
384,232,95843,1,0
384,184,96015,1,0
384,136,96188,2,0,B|384:64|384:64|464:64,1,135
448,104,96878,5,0
448,152,97050,1,0
448,192,97222,1,0
448,240,97395,1,0
448,280,97567,2,0,B|448:336|448:336|352:336,1,135
320,336,98257,5,0
272,336,98429,1,0
224,336,98602,1,0
176,336,98774,1,0
128,336,98947,2,0,B|80:336|80:336|80:240,1,135
80,160,99809,2,0,B|24:160,6,30
80,72,100843,5,0
120,72,101015,1,0
160,72,101188,1,0
208,72,101360,1,0
248,72,101533,1,0
296,72,101705,2,0,B|296:144|296:144|216:144,1,135
184,144,102395,5,0
136,144,102567,1,0
88,144,102740,1,0
40,144,102912,1,0
40,184,103084,2,0,B|40:240|40:240|136:240,1,135
160,240,103774,5,0
208,240,103947,1,0
256,240,104119,1,0
304,240,104291,1,0
344,240,104464,2,0,B|344:192|344:192|440:192,1,135
432,104,105326,1,0
344,104,105671,5,0
264,104,106015,1,8
264,104,106360,1,0
176,104,106705,1,8
176,104,107050,1,0
88,104,107395,2,0,B|88:208,1,90,8|0
88,240,107912,1,0
88,280,108084,1,8
88,328,108257,6,0,B|88:376,2,45
136,328,108774,2,0,B|240:328,1,90,8|0
272,328,109291,2,0,B|272:384,2,45,0|8|0
320,328,109809,1,0
368,328,109981,1,0
408,328,110153,2,0,B|408:232,1,90,8|0
408,192,110671,1,0
408,144,110843,1,8
408,144,111015,1,0
408,144,111188,1,0
408,144,111360,1,0
408,144,111533,1,8
408,56,111878,6,0,B|408:-8,2,45,8|0|8
360,56,112395,1,0
312,56,112567,1,8
264,56,112740,2,0,B|160:56,1,90,0|0
128,56,113257,5,8
96,80,113429,1,8
128,112,113602,1,0
128,160,113774,1,8
176,160,113947,2,8,B|272:160,1,90,8|8
312,160,114464,5,0
360,160,114636,1,0
400,160,114809,1,8
440,176,114981,1,0
440,216,115153,1,8
440,264,115326,1,0
400,280,115498,2,0,B|328:328|296:328|256:312|152:264,1,225,0|8
192,192,116705,1,8
104,192,117050,6,4,B|104:8,1,180
192,16,118084,1,0
280,16,118429,2,4,B|280:216,1,180
368,200,119464,1,0
456,200,119809,2,4,B|456:16,1,180
368,24,120843,5,0
280,24,121188,2,4,B|96:24,1,180
8,24,122222,1,0
8,112,122567,2,4,B|8:304,1,180
96,288,123602,1,0
184,288,123947,6,0,B|184:208|184:208|240:208|240:208|240:296,1,180,4|4
240,344,124981,1,0
328,344,125326,2,4,B|408:344|408:344|408:288|408:288|320:288,1,180
360,200,126360,1,0
360,112,126705,2,4,B|280:112|280:112|280:56|280:56|368:56,1,180
416,56,127740,5,0
416,144,128084,2,4,B|416:224|416:224|360:224|360:224|360:136,1,180
272,176,129119,1,0
184,176,129464,2,4,B|184:96|184:96|128:96|128:96|128:184,1,180
40,144,130498,1,0
40,232,130843,5,0
40,232,131015,1,0
128,232,131360,1,0
128,232,131533,1,0
216,232,131878,1,0
216,232,132050,1,0
304,232,132395,1,0
304,232,132567,1,0
392,232,132912,1,0
392,232,133084,1,0
392,232,133257,1,0
392,232,133429,1,0
392,232,133602,6,4,B|392:48,1,180,4|0
344,48,134464,1,0
296,48,134636,1,0
248,48,134809,1,0
208,48,134981,1,4
120,48,135326,1,0
120,136,135671,5,0
88,168,135843,1,0
72,208,136015,1,0
88,248,136188,1,0
120,280,136360,2,0,B|120:376,2,90,4|0|0
208,280,137395,1,0
296,280,137740,1,4
384,280,138084,1,0
384,280,138257,1,0
384,280,138429,1,0
384,280,138602,1,0
384,280,138774,1,0
384,280,138947,1,0
384,280,139119,6,4,B|384:184,1,90
336,192,139636,1,0
336,192,139809,1,0
336,144,139981,1,0
336,144,140153,1,0
336,96,140326,1,0
336,96,140498,2,4,B|336:0,1,90
248,8,141188,5,0
216,40,141360,1,0
184,72,141533,1,0
152,104,141705,1,0
120,136,141878,2,4,B|120:240,1,90
120,312,142567,5,0
152,280,142740,1,0
184,248,142912,1,0
216,216,143084,1,0
248,184,143257,2,4,B|248:80,1,90
336,96,143947,5,0
376,96,144119,1,0
424,96,144291,1,0
464,96,144464,1,0
464,144,144636,2,4,B|464:256,1,90
376,232,145326,5,0
336,232,145498,1,0
288,232,145671,1,0
248,232,145843,1,0
248,280,146015,2,4,B|248:392,1,90
160,368,146705,5,0
120,368,146878,1,0
72,368,147050,1,0
32,368,147222,1,0
32,320,147395,2,4,B|32:208,1,90
440,232,149291,5,0
440,184,149464,1,0
440,136,149636,1,0
440,88,149809,1,0
440,40,149981,2,0,B|264:40,1,135
305,40,150843,2,0,B|184:40,1,90
215,40,151533,6,0,B|144:24|88:56|104:96|160:128|168:64,1,180
256,80,152567,1,0
344,80,152912,2,0,B|415:64|471:96|455:136|399:168|391:104,1,180
304,120,153947,1,0
216,120,154291,2,0,B|145:104|89:136|105:176|161:208|169:144,1,180
165,158,155153,5,0
165,158,155326,1,0
165,158,155498,2,0,B|272:152|304:208|312:328|240:320|136:336|144:272|144:208|216:176|240:200|216:240,1,405
218,235,157222,5,0
218,235,157395,1,0
218,235,157567,1,0
218,235,157740,1,0
218,235,157912,1,0
218,235,158084,1,0
218,235,158257,2,0,B|240:200|216:176|144:208|144:272|136:336|240:320|312:328|304:208|272:152|165:158,1,405
80,160,160153,5,0
80,248,160498,1,0
80,248,160671,1,0
80,248,160843,1,0
32,248,161015,2,0,B|32:136,1,90
80,32,161878,1,0
256,32,162567,2,0,B|360:24|424:32|432:184,1,270
432,264,163947,1,4
256,192,171878,12,0,174291
