osu file format v5

[General]
AudioFilename: The Killers - Mr Brightside (Album Version).mp3
AudioLeadIn: 0
PreviewTime: 55156
Countdown: 1
SampleSet: Normal
StackLeniency: 0.7
Mode: 0
LetterboxInBreaks: 1
EditorBookmarks: 6881,31211,54731,84334,97716
EditorDistanceSpacing: 1

[Metadata]
Title:Mr. Brightside
Artist:The Killers
Creator:LuigiHann
Version:Normal
Source:
Tags:

[Difficulty]
HPDrainRate:3
CircleSize:3
OverallDifficulty:3
SliderMultiplier:1.4
SliderTickRate:2

[Events]
//Background and Video events
0,0,"brightside.jpg"
//Break Periods
2,19448,31228
2,84128,96516
2,136248,146607
//Storyboard Layer 0 (Background)
//Storyboard Layer 1 (Failing)
//Storyboard Layer 2 (Passing)
//Storyboard Layer 3 (Foreground)
//Storyboard Sound Samples
//Background Colour Transformations
3,100,128,0,0

[TimingPoints]
6908,405.405405405405,4,1,1,100,1,0
58394,-100,4,1,1,100,0,1
84340,-100,4,1,1,100,0,0
149205,-100,4,1,1,100,0,1
174847,-100,4,1,1,100,0,0

[HitObjects]
368,144,6905,1,0
256,192,7313,1,0
144,272,7718,1,0
144,272,7921,1,0
96,64,8529,5,0
160,160,8935,1,0
240,272,9340,1,4
352,336,9745,1,4
432,224,10151,5,0
432,80,10556,1,0
320,144,10962,2,0,B|288:208,1,70
160,224,11570,6,0,B|128:160,1,70
176,48,12178,1,0
288,96,12583,1,0
448,320,13394,6,0,B|400:352|368:320,2,70
480,256,14002,1,0
480,160,14407,1,0
368,80,15016,5,0
304,128,15421,2,0,B|240:176,2,70
288,272,16232,1,4
384,256,16637,6,0,B|321:174|237:155|237:269|98:305|64:192,1,350
176,64,18259,2,0,B|197:149|336:113|336:-1|420:18|483:100,1,350
112,80,32448,6,0,B|64:144|96:192|176:176|256:192|256:240|192:272|192:304,1,280
480,304,34070,5,0
352,256,34475,1,0
480,208,34880,1,0
480,208,35286,1,0
480,208,35691,1,0
384,128,36502,1,0
80,48,37313,5,0
304,144,38124,1,0
192,320,38934,2,0,B|256:352|320:352|384:352|432:336|480:288,3,280
304,80,42178,6,0,B|240:144,2,70
176,176,42989,6,0,B|112:224,2,70
336,192,43799,6,0,B|416:160,2,70
192,256,44610,6,0,B|272:288,3,70
448,304,45826,5,0
320,352,46232,1,0
192,304,46637,1,0
64,352,47043,1,0
128,80,47853,5,0
352,256,48664,1,0
448,160,49070,1,0
464,304,49475,2,0,B|384:368|256:336,1,210
272,208,51502,5,0
400,112,51907,2,0,B|464:160|464:224|448:272|400:288,1,210
176,320,53124,2,0,B|77:253|91:133|224:80,1,280
256,192,54745,12,0,56975
304,320,58394,6,0,B|230:265|170:261|189:329|77:355|32:272,1,280
256,112,60016,6,0,B|352:224,1,140
480,176,60826,2,0,B|384:288,1,140
384,144,61637,1,0
192,80,62245,1,0
192,80,62448,1,0
448,208,63259,6,0,B|336:320,1,140
352,160,64070,1,0
448,64,64475,1,0
304,80,64880,2,0,B|249:154|245:214|313:195|339:307|256:352,1,280,0|0
80,208,66502,5,0
144,80,66907,1,0
224,192,67313,1,0
288,64,67718,1,0
432,64,68124,2,0,B|487:138|491:198|423:179|397:291|480:336,1,280,0|0
208,320,69745,6,0,B|160:304|128:288|128:208,1,140
192,96,70556,2,0,B|240:160|336:128,1,140
432,64,71367,1,6
448,272,71975,1,2
448,272,72178,1,2
112,320,72989,5,0
48,192,73394,1,0
128,80,73799,1,0
256,112,74205,1,0
384,80,74610,2,2,B|448:112|465:263|368:336,1,280
128,304,76232,5,0
48,192,76637,1,0
32,336,77043,1,0
136,216,77448,1,0
256,288,77853,2,0,B|336:329|400:304|448:208,1,210
208,160,79070,2,2,B|264:96|412:94|496:176,2,280,2|2|2
352,336,81502,5,0
208,336,81907,1,0
208,192,82313,1,0
80,112,82718,2,0,B|145:47|224:112,3,140
144,144,97718,5,0
256,192,98124,1,0
368,272,98529,1,0
368,272,98732,1,0
416,64,99340,5,0
352,160,99745,1,0
272,272,100151,1,4
160,336,100556,1,4
80,224,100961,5,0
80,80,101367,1,0
192,144,101772,2,0,B|224:208,1,70
352,224,102380,6,0,B|384:160,1,70
336,48,102988,1,0
224,96,103394,1,0
64,320,104205,6,0,B|112:352|144:320,2,70
32,256,104813,1,0
32,160,105218,1,0
144,80,105826,5,0
208,128,106232,2,0,B|272:176,2,70
224,272,107043,1,4
128,256,107448,6,0,B|191:174|275:155|275:269|414:305|448:192,1,350
336,64,109070,2,0,B|315:149|176:113|176:-1|92:18|29:100,1,350
464,256,110691,5,0
352,336,111097,1,0
240,256,111502,2,0,B|112:320,1,140
64,192,112313,5,0
160,96,112718,1,0
304,144,113124,2,0,B|384:272,1,140
224,288,113934,5,0
80,208,114340,1,0
144,64,114745,2,0,B|304:64,1,140
416,128,115556,5,0
464,272,115961,1,0
320,320,116367,2,0,B|208:192,1,140
80,272,117178,5,0
128,128,117583,1,0
272,80,117988,2,0,B|352:128,2,70
400,160,118799,5,0
464,288,119205,1,0
304,320,119610,2,0,B|304:224,2,70
144,320,120421,6,0,B|80:256|128:176,2,140
256,192,121637,12,0,123259
128,288,124070,5,0
480,304,124880,5,0
352,256,125286,1,0
480,208,125691,1,0
480,208,126097,1,0
480,208,126502,1,0
384,128,127313,1,0
64,64,128124,5,0
304,128,128934,1,0
160,304,129745,2,0,B|224:336|288:336|352:336|400:320|448:272,3,280
304,80,132988,6,0,B|240:144,2,70
176,176,133799,6,0,B|112:224,2,70
336,192,134610,6,0,B|416:160,2,70
192,256,135421,6,0,B|272:288,3,70
256,192,147583,12,0,149205
256,272,150826,6,0,B|352:160,1,140
480,208,151637,2,0,B|384:96,1,140
384,240,152448,1,0
192,304,153056,1,0
192,304,153259,1,0
448,176,154070,6,0,B|336:64,1,140
352,224,154880,1,0
448,320,155286,1,0
304,304,155691,2,0,B|249:230|245:170|313:189|339:77|256:32,1,280,0|0
80,176,157313,5,0
144,304,157718,1,0
224,192,158124,1,0
288,320,158529,1,0
432,320,158934,2,0,B|487:246|491:186|423:205|397:93|480:48,1,280,0|0
208,64,160556,6,0,B|160:80|128:96|128:176,1,140
192,288,161367,2,0,B|240:224|336:256,1,140
432,320,162178,1,6
448,112,162786,1,2
448,112,162988,1,2
112,64,163799,5,0
48,192,164205,1,0
128,304,164610,1,0
256,272,165015,1,0
384,304,165421,2,2,B|448:272|465:121|368:48,1,280
128,80,167042,5,0
48,192,167448,1,0
32,48,167853,1,0
136,168,168259,1,0
256,96,168664,2,0,B|336:55|400:80|448:176,1,210
208,224,169880,2,2,B|264:288|412:290|496:208,2,280,2|2|2
352,48,172313,5,0
208,48,172718,1,0
208,192,173124,1,0
80,272,173529,2,0,B|145:337|224:272,3,140
240,144,175151,5,0
96,208,175556,1,0
160,336,175961,1,0
304,336,176367,1,0
448,336,176772,5,0
448,192,177178,1,0
448,48,177583,1,0
304,48,177988,1,0
336,192,178394,5,0
192,192,178799,1,0
256,320,179205,1,0
112,320,179610,1,0
48,192,180015,5,0
112,64,180421,1,0
176,192,180826,1,0
240,64,181232,1,0
400,64,181637,5,0
432,208,182042,1,0
352,336,182448,1,0
208,336,182853,1,0
64,336,183259,5,0
64,192,183664,1,0
64,48,184069,1,0
200,48,184475,1,0
176,192,184880,5,0
320,192,185286,1,0
256,320,185691,1,0
400,320,186097,1,0
464,192,186502,5,0
400,64,186907,1,0
336,192,187313,1,0
256,192,187921,12,0,191773
256,192,193799,12,0,197449
