osu file format v5

[General]
AudioFilename: The Killers - Mr Brightside (Album Version).mp3
AudioLeadIn: 0
PreviewTime: 55156
Countdown: 1
SampleSet: Normal
StackLeniency: 0.7
Mode: 0
LetterboxInBreaks: 1
EditorBookmarks: 6881,31211,54731,84334,97716

[Metadata]
Title:Mr. Brightside
Artist:The Killers
Creator:LuigiHann
Version:Hard
Source:
Tags:

[Difficulty]
HPDrainRate:4
CircleSize:5
OverallDifficulty:4
SliderMultiplier:1.4
SliderTickRate:2

[Events]
//Background and Video events
0,0,"brightside.jpg"
//Break Periods
2,19448,31228
2,84128,96516
2,136248,146607
//Storyboard Layer 0 (Background)
//Storyboard Layer 1 (Failing)
//Storyboard Layer 2 (Passing)
//Storyboard Layer 3 (Foreground)
//Storyboard Sound Samples
//Background Colour Transformations
3,100,128,0,0

[TimingPoints]
6908,405.405405405405,4,1,1,100,1,0
58394,-100,4,1,1,100,0,1
84340,-100,4,1,1,100,0,0
149205,-100,4,1,1,100,0,1
174847,-100,4,1,1,100,0,0

[HitObjects]
368,144,6907,2,0,B|368:192|304:192,1,70
256,192,7313,2,0,B|192:192|192:256,1,70
144,272,7718,1,0
144,272,7921,1,0
96,64,8529,6,0,B|64:112|112:144,1,70
160,160,8935,2,0,B|208:176|208:224,1,70
240,272,9340,1,4
352,336,9745,1,4
432,224,10151,5,0
432,224,10353,1,0
400,160,10556,1,0
400,160,10759,1,0
336,144,10962,2,0,B|304:208,1,70
160,224,11570,6,0,B|128:160,1,70
128,96,11975,1,0
176,48,12178,1,0
240,48,12380,1,0
288,96,12583,1,0
448,320,13394,6,0,B|400:352|368:320,2,70
480,256,14002,1,0
432,208,14205,1,0
480,160,14407,1,0
368,80,14813,5,0
368,80,15016,1,0
368,80,15218,1,0
304,128,15421,2,0,B|240:176,1,70
192,208,15826,1,4
288,320,16232,1,4
384,256,16637,6,0,B|321:174|237:155|237:269|98:305|64:192,1,350
176,64,18259,2,0,B|197:149|336:113|336:-1|420:18|483:100,1,350
112,80,32448,6,0,B|64:144|96:192|176:176|256:192|256:240|192:272|192:304,1,280
480,304,34070,5,0
352,256,34475,1,0
480,208,34880,1,0
352,160,35286,1,0
480,112,35691,1,0
224,208,36502,1,0
48,32,37313,6,0,B|192:64,1,140
272,160,38124,2,0,B|112:208,1,140
192,320,38934,2,0,B|256:352|320:352|384:352|432:336|480:288,3,280
304,80,42178,6,0,B|240:144,1,70
320,160,42583,1,0
176,192,42989,6,0,B|112:240,1,70
112,160,43394,1,0
208,64,43799,6,0,B|288:32,1,70
272,112,44205,1,0
208,240,44610,6,0,B|288:272,1,70
272,192,45016,1,0
272,192,45218,1,4
448,304,45826,5,0
320,352,46232,1,0
192,304,46637,1,0
64,352,47043,1,0
128,80,47853,5,0
352,256,48664,1,0
448,160,49070,1,0
448,304,49475,1,0
304,304,49880,5,0
80,128,50691,1,0
272,208,51299,5,0
272,208,51502,1,0
352,96,51907,2,0,B|432:224,1,140
416,288,52516,1,0
416,288,52718,1,0
288,320,53124,2,0,B|144:320,2,140
352,320,54137,1,0
352,320,54340,1,0
448,224,54745,5,0
192,96,55556,5,0
192,96,55759,1,0
112,288,56367,1,0
320,272,56975,5,4
448,112,57583,1,0
448,112,57786,1,4
304,320,58394,6,0,B|230:265|170:261|189:329|77:355|32:272,1,280
144,192,59610,1,4
256,112,60016,6,0,B|352:224,1,140
480,176,60826,2,0,B|384:288,1,140
384,144,61637,1,0
192,80,62245,1,0
192,80,62448,1,0
448,208,63259,6,0,B|336:320,1,140
352,160,64070,1,0
448,64,64475,1,0
304,80,64880,2,0,B|249:154|245:214|313:195|339:307|256:352,1,280,0|0
128,336,66097,1,4
80,208,66502,5,0
144,80,66907,1,0
224,192,67313,1,0
288,64,67718,1,0
432,64,68124,2,0,B|487:138|491:198|423:179|397:291|480:336,1,280,0|0
336,256,69340,1,4
208,320,69745,6,0,B|160:304|128:288|128:208,1,140
192,96,70556,2,0,B|240:160|336:128,1,140
432,64,71367,1,6
448,272,71975,1,2
400,320,72178,1,2
256,288,72583,1,4
112,320,72989,5,0
48,192,73394,1,0
128,80,73799,1,0
256,112,74205,1,0
384,80,74610,2,2,B|448:112|460:195|416:272,1,210
384,320,75421,1,6
256,256,75826,1,4
128,304,76232,5,0
48,192,76637,1,0
32,336,77043,1,0
120,224,77448,1,0
192,112,77853,6,2,B|288:224,1,140,0|6
336,272,78461,2,2,B|448:160,1,140,0|6
448,96,79070,2,2,B|392:32|244:30|160:112,2,280
448,240,81097,1,4
352,336,81502,5,0
208,336,81907,1,0
208,192,82313,1,0
80,112,82718,2,0,B|145:47|224:112,3,140
448,64,97718,6,0,B|464:128|432:160,1,70
384,112,98124,2,0,B|368:160|416:192,1,70
432,240,98529,1,0
432,240,98732,1,0
320,320,99137,6,0,B|288:336|240:320,1,70
192,288,99543,1,0
128,240,99745,2,0,B|82:223|112:176,1,70
160,128,100151,1,12
304,128,100556,1,12
384,240,100961,6,0,B|448:288,1,70
464,224,101367,2,0,B|400:176,1,70
448,112,101772,1,0
448,112,101975,1,0
304,112,102380,5,0
240,144,102583,1,0
304,176,102786,1,0
240,208,102988,1,0
304,240,103191,1,0
240,272,103394,1,0
80,48,104205,6,0,B|144:96,1,70
192,128,104610,2,0,B|256:64,1,70
304,48,105016,1,0
304,48,105218,1,0
304,192,105624,5,0
304,256,105826,2,0,B|304:336,1,70
368,352,106232,1,0
368,288,106434,1,0
368,224,106637,1,12
368,80,107043,1,12
400,208,107448,6,2,B|337:290|253:309|253:195|114:159|80:272,1,350,2|2
160,128,108867,5,4
224,160,109070,1,0
224,160,109272,1,0
288,128,109475,1,4
288,128,109678,1,4
352,160,109880,1,0
352,160,110083,1,0
416,128,110286,1,4
464,256,110691,5,0
352,336,111097,2,0,B|288:288,1,70
240,256,111502,2,0,B|112:320,1,140
64,192,112313,5,0
160,96,112718,2,0,B|192:160,1,70
256,128,113124,2,0,B|336:256,1,140
416,144,113934,5,0
416,144,114137,1,0
448,208,114340,2,0,B|416:288,1,70
368,320,114745,2,0,B|304:272,2,70
224,336,115556,5,0
224,336,115759,1,0
160,304,115961,2,0,B|96:240,2,70
224,272,116570,1,4
64,128,117178,5,0
128,128,117380,2,0,B|128:208,2,70
192,128,117988,2,0,B|272:128,1,70
336,128,118394,1,4
480,128,118799,6,0,B|480:208,1,70
480,272,119205,2,0,B|384:272,1,70
336,272,119610,2,0,B|336:192,2,70,0|0|4
208,336,120421,6,0,B|128:336,1,70
144,272,120826,2,0,B|224:272,1,70
224,208,121232,2,0,B|144:208,1,70
256,192,121637,12,0,123259
176,80,124070,5,0
432,192,124880,5,0
480,320,125286,1,0
352,272,125691,1,0
224,320,126097,1,0
80,320,126502,2,0,B|48:224|80:176|96:160,1,140
208,224,127313,2,0,B|240:128|208:80|192:64,1,140,0|0
352,96,128124,5,0
352,96,128326,1,0
352,96,128529,1,0
432,208,128934,1,0
432,208,129137,1,0
432,208,129340,1,0
352,320,129745,1,0
352,320,129948,1,0
352,320,130151,1,0
352,320,130353,1,0
352,320,130556,1,2
352,320,130759,1,2
352,320,130961,1,6
432,208,131367,6,0,B|352:160,1,70
320,128,131772,2,0,B|384:96,1,70
400,160,132178,1,2
400,160,132380,1,2
400,160,132583,1,2
288,256,132988,6,0,B|352:192,1,70
384,256,133394,2,0,B|448:288,1,70
464,224,133799,1,2
464,224,134002,1,2
464,224,134205,1,2
320,208,134610,6,0,B|272:272,1,70
240,320,135015,2,0,B|176:256,1,70
144,224,135421,1,2
144,224,135624,1,0
144,224,135826,1,2
144,224,136029,1,4
112,256,147786,5,0
112,256,147988,1,0
112,256,148191,1,0
112,256,148394,1,0
112,256,148597,1,0
112,256,148799,1,0
208,320,149205,6,0,B|282:265|342:261|323:329|435:355|480:272,1,280
368,192,150421,1,4
256,112,150826,6,0,B|160:224,1,140
32,176,151637,2,0,B|128:288,1,140
128,144,152448,1,0
320,80,153056,1,0
320,80,153259,1,0
64,208,154070,6,0,B|176:320,1,140
160,160,154880,1,0
64,64,155286,1,0
208,80,155691,2,0,B|263:154|267:214|199:195|173:307|256:352,1,280,0|0
384,336,156907,1,4
432,208,157313,5,0
368,80,157718,1,0
288,192,158124,1,0
224,64,158529,1,0
80,64,158934,2,0,B|25:138|21:198|89:179|115:291|32:336,1,280,0|0
176,256,160151,1,4
304,320,160556,6,0,B|352:304|384:288|384:208,1,140
320,96,161367,2,0,B|272:160|176:128,1,140
80,64,162178,1,6
64,272,162786,1,2
112,320,162988,1,2
256,288,163394,1,4
400,320,163799,5,0
464,192,164205,1,0
384,80,164610,1,0
256,112,165015,1,0
128,80,165421,2,2,B|64:112|52:195|96:272,1,210
128,320,166232,1,6
256,256,166637,1,4
384,304,167042,5,0
464,192,167448,1,0
480,336,167853,1,0
392,224,168259,1,0
320,112,168664,6,2,B|224:224,1,140,0|6
176,272,169272,2,2,B|64:160,1,140,0|6
64,96,169880,2,2,B|120:32|268:30|352:112,2,280
64,240,171907,1,4
160,336,172313,5,0
304,336,172718,1,0
304,192,173124,1,0
432,112,173529,2,0,B|367:47|288:112,3,140
160,80,175151,5,0
96,208,175556,1,0
160,336,175961,1,0
304,336,176367,1,0
448,336,176772,5,0
416,192,177178,1,0
448,48,177583,1,0
480,192,177988,1,0
336,192,178394,5,0
192,192,178799,1,0
256,320,179205,1,0
112,320,179610,1,0
48,192,180015,5,0
112,64,180421,1,0
176,192,180826,1,0
240,64,181232,1,0
384,64,181637,6,0,B|432:128,1,70
432,192,182042,2,0,B|384:256,1,70
352,304,182448,2,0,B|416:352,1,70
448,288,182853,2,0,B|496:224,1,70
496,160,183259,6,0,B|496:80,1,70
432,64,183664,2,0,B|368:32,1,70
304,32,184069,2,0,B|240:80,1,70
192,112,184475,2,0,B|128:160,1,70
80,208,184880,6,0,B|80:272,2,35
144,240,185286,2,0,B|144:288,2,35
208,208,185691,2,0,B|208:160,2,35
272,224,186097,2,0,B|272:272,2,35
336,208,186502,6,0,B|384:208,2,35
336,144,186907,2,0,B|336:96,2,35
272,144,187313,2,0,B|224:144,4,35
256,192,187819,12,0,191772
256,192,193799,12,0,197449
