osu file format v14

[General]
AudioFilename: The_Killers_-_Hot_Fuss_-_02_-_Mr_Brightside_-_2004_.mp3
AudioLeadIn: 0
PreviewTime: -1
Countdown: 1
SampleSet: None
StackLeniency: 0.7
Mode: 0
LetterboxInBreaks: 1
WidescreenStoryboard: 0

[Editor]
DistanceSpacing: 1.3
BeatDivisor: 4
GridSize: 8
TimelineZoom: 2.3

[Metadata]
Title:Mr Brightside
TitleUnicode:Mr Brightside
Artist:The Killers
ArtistUnicode:The Killers
Creator:filsdelama
Version:ftg
Source:
Tags:
BeatmapID:699968
BeatmapSetID:313561

[Difficulty]
HPDrainRate:8
CircleSize:4
OverallDifficulty:8
ApproachRate:9
SliderMultiplier:2.1
SliderTickRate:1

[Events]
//Background and Video events
//Break Periods
//Storyboard Layer 0 (Background)
//Storyboard Layer 1 (Fail)
//Storyboard Layer 2 (Pass)
//Storyboard Layer 3 (Foreground)
//Storyboard Sound Samples

[TimingPoints]
92,405.350628293474,4,1,0,100,1,0

[HitObjects]
96,80,6577,5,0,0:0:0:0:
112,328,6982,2,0,P|176:304|200:192,1,157.5
208,192,7388,1,0,0:0:0:0:
368,184,7590,1,0,0:0:0:0:
392,32,7793,1,0,0:0:0:0:
288,208,7996,1,0,0:0:0:0:
336,64,8199,1,0,0:0:0:0:
456,176,8401,6,0,P|416:248|392:264,1,105
256,328,8807,1,0,0:0:0:0:
296,184,9009,1,0,0:0:0:0:
352,320,9212,1,0,0:0:0:0:
224,224,9415,2,0,B|176:272|176:272|64:224,1,157.5
64,224,9820,1,0,0:0:0:0:
144,96,10023,1,0,0:0:0:0:
264,120,10225,6,0,P|296:40|272:-16,1,105
144,96,10631,2,0,P|112:176|136:232,1,105
184,320,11036,1,0,0:0:0:0:
312,224,11239,2,0,L|320:280,1,52.5
328,312,11441,2,0,P|400:320|416:200,1,210
336,128,12049,1,0,0:0:0:0:
232,184,12252,2,0,P|240:112|272:64,2,105
336,128,12860,1,0,0:0:0:0:
160,312,13063,6,0,P|112:280|112:136,1,210
232,184,13671,1,0,0:0:0:0:
160,64,13873,1,0,0:0:0:0:
232,184,14076,1,0,0:0:0:0:
288,56,14279,1,0,0:0:0:0:
384,176,14481,1,0,0:0:0:0:
288,312,14684,1,0,0:0:0:0:
168,312,14887,6,0,L|128:208,2,105
288,312,15495,1,0,0:0:0:0:
384,176,15697,1,0,0:0:0:0:
288,48,15900,1,0,0:0:0:0:
288,312,16306,1,0,0:0:0:0:
112,112,16711,5,0,0:0:0:0:
32,312,16914,1,0,0:0:0:0:
200,232,17116,1,0,0:0:0:0:
24,152,17319,1,0,0:0:0:0:
136,320,17522,1,0,0:0:0:0:
112,112,17724,1,0,0:0:0:0:
352,264,18130,1,0,0:0:0:0:
432,64,18333,5,0,0:0:0:0:
264,144,18535,1,0,0:0:0:0:
440,224,18738,1,0,0:0:0:0:
328,40,18940,1,0,0:0:0:0:
248,320,19143,1,0,0:0:0:0:
56,112,19346,1,0,0:0:0:0:
16,328,19548,6,0,P|104:312|160:232,1,157.5
160,232,19954,1,0,0:0:0:0:
248,320,20156,1,0,0:0:0:0:
336,208,20359,2,0,P|376:272|384:320,2,105
240,112,20967,2,0,L|128:112,1,105
24,264,21372,2,0,L|152:264,1,105
240,344,21778,1,0,0:0:0:0:
400,256,21980,1,0,0:0:0:0:
336,112,22183,1,0,0:0:0:0:
336,112,22386,1,0,0:0:0:0:
264,256,22588,2,0,P|216:240|192:72,1,210
256,152,23196,5,0,0:0:0:0:
72,40,23399,1,0,0:0:0:0:
72,280,23602,2,0,L|72:176,2,105
176,344,24210,1,0,0:0:0:0:
280,232,24413,1,0,0:0:0:0:
384,344,24615,1,0,0:0:0:0:
280,232,24818,1,0,0:0:0:0:
176,112,25021,1,0,0:0:0:0:
392,120,25223,1,0,0:0:0:0:
280,232,25426,1,0,0:0:0:0:
280,72,25629,1,0,0:0:0:0:
176,112,25831,2,0,P|104:120|200:200,1,262.5
200,208,26439,6,0,P|208:272|192:336,1,105
408,248,26845,2,0,P|400:184|416:120,1,105
288,72,27250,1,0,0:0:0:0:
112,112,27453,2,0,P|88:184|96:320,1,210
248,88,28060,1,0,0:0:0:0:
256,328,28263,1,0,0:0:0:0:
376,184,28466,1,0,0:0:0:0:
472,320,28669,1,0,0:0:0:0:
352,320,28871,1,0,0:0:0:0:
496,184,29074,2,0,P|488:128|344:64,1,210
272,176,29682,5,0,0:0:0:0:
216,32,29885,1,0,0:0:0:0:
272,176,30087,2,0,B|280:240|280:240|256:312,2,105
112,176,30695,2,0,P|80:240|136:320,1,157.5
136,328,31101,1,0,0:0:0:0:
344,208,31506,1,0,0:0:0:0:
344,56,31709,1,0,0:0:0:0:
472,320,31912,1,0,0:0:0:0:
232,320,32114,1,0,0:0:0:0:
344,56,32520,6,0,P|240:48|216:160,1,210
304,160,33128,1,0,0:0:0:0:
200,248,33330,2,0,P|144:216|128:72,1,210
408,64,34141,6,0,P|416:136|392:240,1,157.5
320,256,34546,6,0,P|312:184|336:80,1,157.5
216,64,34952,6,0,P|224:136|200:240,1,157.5
128,256,35358,6,0,P|120:184|144:80,1,157.5
144,72,35762,5,0,0:0:0:0:
256,192,36168,5,0,0:0:0:0:
256,192,36370,1,0,0:0:0:0:
384,344,36573,1,0,0:0:0:0:
392,152,36978,1,0,0:0:0:0:
392,152,37181,1,0,0:0:0:0:
384,344,37384,1,0,0:0:0:0:
512,224,37789,1,0,0:0:0:0:
512,224,37992,1,0,0:0:0:0:
384,344,38194,1,0,0:0:0:0:
256,192,38600,1,0,0:0:0:0:
256,192,38802,1,0,0:0:0:0:
256,192,39005,1,0,0:0:0:0:
