osu file format v5

[General]
AudioFilename: The Killers - Midnight Show (Hot Fuss).mp3
AudioLeadIn: 0
PreviewTime: 39567
Countdown: 1
SampleSet: Normal
StackLeniency: 0.7
Mode: 0
LetterboxInBreaks: 1
EditorBookmarks: 184251
EditorDistanceSpacing: 1

[Metadata]
Title:Midnight Show
Artist:The Killers
Creator:Remco32
Version:Normal
Source:
Tags:

[Difficulty]
HPDrainRate:4
CircleSize:4
OverallDifficulty:4
SliderMultiplier:1.3
SliderTickRate:1

[Events]
//Background and Video events
//Break Periods
2,30803,32410
2,52698,52841
2,107731,119137
2,174653,182931
2,187578,192730
//Storyboard Layer 0 (Background)
//Storyboard Layer 1 (Failing)
//Storyboard Layer 2 (Passing)
//Storyboard Layer 3 (Foreground)
//Storyboard Sound Samples
//Background Colour Transformations
3,100,163,162,255

[TimingPoints]
14133.5320178595,416.956219596942,4,1,0,100,1,0
41235,-100,4,1,0,100,0,1
45822,-100,4,1,0,100,0,0
47912,-100,4,1,0,100,0,1
52493,-100,4,1,0,100,0,0
147976,-100,4,1,0,100,0,1
174703,-100,4,1,0,100,0,0
200929,-100,4,2,0,100,0,0

[HitObjects]
72,72,14133,1,0
144,72,14342,1,0
216,72,14550,1,0
288,72,14758,1,0
360,72,14967,2,0,B|424:96|424:200,1,130
408,304,15801,5,2
344,304,16009,1,2
80,304,16843,5,0
80,240,17052,1,0
80,176,17260,1,0
80,112,17469,2,0,B|160:112,1,65
208,112,17886,2,0,B|304:112,1,65
336,112,18303,1,0
400,112,18511,1,0
400,176,18720,2,0,B|320:256,2,65
264,176,19553,5,2
264,240,19762,1,2
16,32,20804,6,0,B|352:32,1,325,0|0
344,160,22264,2,2,B|344:232,2,65
80,248,23515,5,0
112,304,23723,1,0
160,344,23932,1,0
224,352,24140,1,0
288,352,24348,1,0
352,336,24557,1,0
408,304,24765,1,0
448,248,24974,1,0
328,192,25391,1,2
200,192,25808,2,2,B|112:192|80:152|72:88|112:48|224:48,1,260
312,56,27059,5,0
376,56,27267,1,0
440,56,27476,1,0
440,56,27684,1,0
440,184,28101,1,0
248,184,28726,1,0
120,184,29143,1,0
120,56,29560,5,4
120,120,29769,1,2
120,312,30394,1,4
184,312,30603,1,2
400,96,33730,5,0
400,224,34147,2,0,B|400:304|328:344|256:344|144:344,1,260
72,344,35398,1,0
72,280,35606,1,0
72,16,36440,6,0,B|456:16,1,325
400,80,37691,1,0
400,208,38108,2,0,B|16:208,1,325,0|4
256,192,39567,12,0,40818
56,72,41235,6,0,B|456:72,1,390
448,72,42903,2,0,B|448:320,1,195
448,264,43737,2,0,B|16:264,1,390
176,184,45405,1,2
304,184,45822,1,2
240,72,46239,6,0,B|240:224,1,130
240,328,47073,2,0,B|240:208,2,65
368,328,47906,6,0,B|368:24,1,260
368,64,49157,2,0,B|104:64,1,260
104,64,50205,1,0
104,64,50408,2,0,B|104:248,1,130
432,192,51873,2,2,B|200:192,1,195,2|6
424,56,54161,5,0
424,120,54369,1,0
424,184,54578,1,0
424,248,54786,1,0
424,312,54995,2,0,B|376:360|256:352,1,130
176,352,55829,2,0,B|96:352,2,65
176,288,56454,5,0
176,224,56663,1,0
176,160,56871,2,0,B|176:56|320:56,1,195
368,56,57705,1,0
432,56,57913,1,0
432,120,58122,1,0
432,184,58330,2,0,B|432:336,1,130
432,314,58956,1,2
64,168,60207,6,0,B|152:88|264:88,1,195
368,88,61249,1,0
368,280,61875,1,4
56,320,63542,5,0
56,256,63751,1,0
56,256,63959,1,0
56,192,64168,1,0
120,192,64376,1,0
120,64,64793,1,0
184,64,65002,1,0
184,192,65419,5,2
376,192,66044,1,2
184,192,66670,2,0,B|104:192,2,65,0|0|4
256,80,67503,5,0
256,144,67712,1,0
256,208,67920,1,0
320,208,68129,2,0,B|320:328,1,65
320,336,68546,2,2,B|96:336,1,195,2|2
120,136,69797,5,0
120,72,70006,1,0
184,72,70214,1,0
248,72,70423,1,0
248,136,70631,1,0
248,136,70840,1,0
248,136,71048,1,0
248,200,71256,2,0,B|320:200,1,65
376,200,71673,2,0,B|376:352,1,130
248,328,72507,2,0,B|136:328|48:328|72:239|72:168,1,260,0|4
264,192,73966,5,0
328,192,74174,1,0
392,192,74383,1,0
456,192,74592,1,0
456,256,74800,2,0,B|248:256,1,195,0|4
128,256,75843,5,0
128,256,76051,1,0
64,256,76260,1,0
0,256,76469,1,0
0,192,76677,2,0,B|184:192,1,130,0|2
256,192,77510,5,0
256,128,77719,1,0
256,64,77927,1,0
320,64,78136,1,0
320,128,78344,1,0
320,256,78761,1,2
192,256,79178,5,0
128,256,79387,1,0
64,256,79595,1,0
64,192,79804,1,0
128,192,80012,1,0
256,192,80429,1,2
368,128,80846,6,0,B|168:128,1,195
40,128,81888,1,0
168,128,82305,1,0
248,360,83139,6,0,B|248:24,1,325,0|4
464,192,87100,5,0
336,192,87517,1,0
272,192,87726,1,0
272,320,88143,1,0
144,320,88560,1,0
16,320,88977,1,0
16,128,89602,6,0,B|104:144|120:56|216:72|256:144|208:248|144:216|120:136,2,325,2|2|4
256,192,92938,12,4,94189
64,120,94606,6,0,B|256:16|440:120|464:144,1,390
440,192,96065,1,0
440,256,96273,2,0,B|248:360|64:256|40:232,1,390
64,120,97941,1,0
192,120,98358,1,0
320,120,98775,1,0
448,120,99192,2,0,B|448:240,1,65
448,248,99609,5,0
448,312,99818,1,0
384,312,100026,1,0
320,312,100234,2,0,B|200:312,1,65
192,312,100651,1,0
128,312,100860,1,0
128,312,101277,6,0,B|128:24,1,260,0|0
128,52,102528,2,0,B|432:52,1,260
384,120,103570,2,0,B|384:184|320:184,3,65
224,176,104613,1,2
96,176,105029,2,0,B|96:112|160:112,3,65
72,328,106906,5,0
200,328,107323,2,2,B|320:328,1,65
408,64,120457,5,0
280,64,120874,1,0
240,112,121082,1,0
112,112,121499,1,0
112,304,122125,1,0
240,304,122542,1,2
288,256,122750,5,0
352,256,122959,1,0
384,200,123167,1,0
384,136,123376,1,0
376,72,123584,1,0
344,16,123793,1,0
272,16,124001,2,0,B|88:16,5,130
136,80,126294,5,2
136,208,126711,1,2
136,336,127128,1,2
208,336,127337,5,0
272,336,127545,1,0
336,336,127754,2,0,B|336:288|280:240,1,65
272,224,128171,1,0
240,96,128588,1,0
304,96,128796,1,0
272,224,129213,1,4
304,352,129630,1,0
240,352,129838,1,0
272,160,130464,1,2
272,160,130672,1,2
72,136,133799,6,0,B|144:72|240:64|352:72|440:144,1,390
434,139,135259,1,0
432,200,135467,1,0
432,200,135676,2,0,B|360:264|264:272|152:264|64:192,2,390
256,104,138803,1,0
256,232,139220,1,0
256,360,139637,1,0
256,232,140054,1,0
256,104,140471,5,0
384,104,140888,2,0,B|384:368,1,260
256,368,142139,2,0,B|256:104,1,260
128,104,143389,2,0,B|128:368,1,260
256,192,144640,12,0,147559
120,48,147976,6,2,L|24:120|136:200|16:264|128:336,1,520
184,336,149852,1,0
248,336,150061,1,2
312,336,150269,1,0
376,336,150478,2,2,L|472:264|360:184|480:120|368:48,1,520,2|2
256,40,152562,1,4
56,40,153188,5,0
56,104,153396,1,0
184,104,153813,1,4
184,104,154230,5,0
184,168,154438,1,0
184,232,154647,1,0
56,232,155064,1,4
56,232,155481,5,0
56,296,155690,1,0
56,360,155898,1,0
184,360,156315,1,4
184,360,156732,5,0
184,296,156941,1,0
184,232,157149,1,0
312,232,157566,1,4
312,40,158191,5,0
248,40,158400,1,0
120,40,158817,1,4
120,168,159234,1,0
184,168,159442,1,0
248,168,159651,1,0
376,168,160068,1,4
256,192,160485,12,4,163820
256,192,164237,12,4,167156
256,64,167573,5,0
256,128,167781,1,0
256,192,167990,1,0
256,256,168198,1,0
256,320,168407,2,0,L|256:208|344:176|360:144|360:96|328:56|280:32|208:56|176:112,1,520,0|2
8,184,170700,5,0
72,184,170909,1,0
136,184,171117,1,0
136,256,171326,1,0
136,320,171534,1,0
264,320,171951,1,2
264,192,172368,2,0,L|264:-16,2,195
264,320,174036,1,2
264,320,174244,1,2
264,320,174453,1,2
256,192,184251,12,4,187378
256,192,194050,12,4,196968
256,192,197385,12,4,201555
