osu file format v7

[General]
AudioFilename: 02-the_killers-human.mp3
AudioLeadIn: 1522
PreviewTime: 104884
Countdown: 0
SampleSet: Normal
StackLeniency: 0.7
Mode: 0
LetterboxInBreaks: 0

[Editor]
Bookmarks: 149629,236419,237083
DistanceSpacing: 1
BeatDivisor: 4
GridSize: 8

[Metadata]
Title:Human
Artist:The Killers
Creator:Remco32
Version:eee!!!
Source:
Tags:EMA eee

[Difficulty]
HPDrainRate:7
CircleSize:4
OverallDifficulty:7
SliderMultiplier:1.8
SliderTickRate:2

[Events]
//Background and Video events
Video,-100,"Human Live EMA.AVI"
0,0,"the_killers_logo.png"
//Break Periods
2,35791,48417
2,102870,103984
2,167735,174826
2,199393,201614
//Storyboard Layer 0 (Background)
//Storyboard Layer 1 (Fail)
//Storyboard Layer 2 (Pass)
//Storyboard Layer 3 (Foreground)
//Storyboard Sound Samples
//Background Colour Transformations
3,100,163,162,255

[TimingPoints]
171,442.765216364602,4,2,0,60,1,0
6934,-200,4,2,0,60,0,0
28431,-200,4,1,0,20,0,0
34720,-100,4,2,0,100,0,0
63473,-100,4,1,0,60,0,0
63920,-100,4,1,0,80,0,1
78099,-100,4,1,0,80,0,0
101953,-100,4,2,0,100,0,0
104903,-100,4,1,0,90,0,0
106436,-100,4,1,0,90,0,1
133114,-100,4,1,0,71,0,1
134221,-100,4,1,0,86,0,1
134443,-100,4,1,0,100,0,1
148688,-100,4,1,0,49,0,0
162688,-100,4,1,0,60,0,0
168444,-100,4,1,0,70,0,0
170215,-100,4,1,0,80,0,0
171986,-100,4,1,0,100,0,0
177278,-100,4,1,0,100,0,1
204730,-100,4,1,0,100,0,0
224236,-100,4,2,0,100,0,0

[Colours]
Combo1 : 30,30,240
Combo2 : 240,30,30

[HitObjects]
128,296,7033,1,0
128,248,7254,1,0
128,160,7697,2,0,B|176:128|232:168,2,90
128,208,8804,2,0,B|176:240|224:200,1,90
212,208,9468,1,2
296,176,9911,1,2
376,216,10354,5,2
392,256,10575,1,0
352,280,10796,2,0,B|320:320|256:288,1,90
192,248,11682,2,0,B|152:216|176:160,1,90
173,166,12346,1,0
232,96,12789,1,2
272,72,13010,1,2
304,152,13453,1,2
336,184,13674,5,0
304,216,13896,1,0
336,248,14117,1,0
304,280,14339,2,0,B|256:312|208:272,3,90
176,256,15888,2,0,B|136:224|216:216|184:160,1,90
191,178,16552,1,2
192,88,16995,1,2
280,88,17438,5,0
320,88,17659,1,0
360,88,17881,2,0,B|408:88,1,90,0|0
424,176,18766,1,0
384,192,18988,1,0
344,208,19209,2,0,B|272:240,1,45
216,232,19873,1,2
168,232,20094,1,2
80,232,20537,1,2
56,80,21201,5,0
104,80,21423,2,0,B|232:80,1,90,0|0
280,80,22308,1,0
328,80,22530,2,0,B|392:80|392:160,1,90,0|0
384,224,23415,1,2
344,248,23637,1,2
264,280,24079,6,0,B|224:312|176:288,1,90,2|0
144,264,24743,1,0
112,232,24965,1,0
144,200,25186,2,0,B|224:144,1,90
88,160,26072,2,0,B|160:104,1,90
159,104,26736,1,2
336,104,27621,6,0,B|328:112|328:112|336:120|336:120|328:128|328:128|336:136|336:136|328:144|328:144|336:152|336:152|328:160|328:160|336:168,1,90
336,208,28286,1,0
336,248,28507,1,0
264,304,28950,1,0
192,248,29393,1,0
120,304,29835,1,0
80,272,30057,1,8
48,240,30278,1,0
56,152,30721,1,0
104,72,31164,1,0
152,152,31606,1,0
192,72,32049,1,0
240,152,32492,1,0
280,72,32935,1,0
240,152,33377,1,0
256,192,33820,12,4,35591
72,176,49317,5,0
136,120,49538,1,0
224,120,49760,2,0,B|416:136|496:344,2,360
216,336,52416,5,0
304,336,52638,1,0
264,160,53080,1,0
264,248,53302,1,0
264,160,53523,2,0,B|184:160|192:16|344:16|336:144,1,270
176,96,55958,5,0
352,96,56401,1,0
392,272,56844,2,2,B|112:272,1,270
216,16,58172,6,0,B|280:-16|328:40,2,90,0|0|2
64,240,59279,5,0
120,312,59501,2,0,B|224:352|320:280,1,180
64,240,60386,2,2,B|152:96|296:216,1,270
256,192,61714,12,0,63485
376,56,63928,5,8
376,144,64150,1,0
288,136,64371,2,0,B|208:208,1,90,8|0
152,256,64814,1,8
224,312,65035,2,0,B|144:248,1,90,0|8
80,200,65478,1,0
144,136,65699,1,8
200,64,65921,1,0
144,136,66142,1,8
216,184,66363,1,0
216,184,66474,1,0
216,184,66585,1,8
272,112,66806,2,8,B|336:104|336:168,1,90
440,264,67249,5,0
376,328,67470,1,8
288,328,67692,1,0
224,264,67913,2,0,B|120:264,1,90,8|0
136,176,68356,2,0,B|240:176,1,90,8|0
316,176,68799,2,0,B|204:176,1,90,8|0
48,176,69463,1,0
96,96,69684,1,8
136,176,69906,1,0
136,176,70016,1,0
136,176,70127,1,8
184,248,70348,1,0
272,248,70570,1,8
360,248,70791,5,0
424,184,71012,1,4
248,160,71455,1,8
184,96,71677,1,0
120,160,71898,2,0,B|120:256|232:312,1,180,8|8
214,302,72562,1,0
384,248,73005,1,0
384,336,73226,1,8
384,248,73448,1,0
384,200,73558,1,0
384,152,73669,1,8
312,200,73890,1,0
264,200,74001,1,0
216,200,74112,1,8
96,152,74333,5,0
104,240,74555,2,0,B|192:320|304:272,1,180,8|0
200,200,75219,1,0
152,120,75440,2,0,B|272:96|328:184,1,180,8|0
344,248,76104,1,4
440,96,76547,5,8
360,48,76768,1,0
272,72,76990,1,8
272,72,77100,1,0
272,72,77211,1,8
192,120,77433,5,8
64,247,77654,1,4
192,120,77875,1,8
319,247,78097,1,4
448,128,78539,6,0,B|384:56|248:72,1,180,8|0
192,72,79204,1,0
120,128,79425,1,8
64,200,79646,2,0,B|112:296|248:304,1,180
205,299,80311,1,8
296,296,80532,1,0
328,264,80643,1,0
296,232,80753,1,8
216,192,80975,5,0
296,144,81196,1,8
376,192,81417,1,0
296,144,81639,2,0,B|128:56,2,180,0|8|0
376,192,82746,1,0
296,232,82967,1,0
216,192,83188,1,0
96,120,83410,6,0,B|32:152|40:216,1,90
40,186,83853,1,8
48,272,84074,2,0,B|88:312,1,45
120,304,84295,1,8
256,312,84517,5,0
344,312,84738,1,8
432,312,84960,1,0
384,232,85181,2,0,B|336:184|288:248,2,90,0|0|0
400,48,86066,1,0
344,120,86288,1,0
288,48,86509,1,8
344,120,86731,2,0,B|416:200|344:304,1,180
264,288,87395,1,8
176,288,87616,1,0
128,288,87727,1,0
176,288,87838,1,8
176,160,88059,5,0
176,72,88280,2,0,B|216:16|280:48,1,90
456,184,88723,5,2
256,368,89166,1,2
48,192,89609,1,2
256,16,90051,5,2
256,104,90273,2,2,B|256:216,1,90
256,194,90716,1,8
256,280,90937,1,8
256,376,91158,1,0
256,328,91269,1,0
256,280,91380,1,8
256,192,91601,2,8,B|256:94,1,90
64,104,92044,5,4
64,192,92265,2,2,B|160:272|248:192,1,180,4|0
344,72,93151,1,2
464,200,93593,1,2
400,264,93815,2,0,B|352:296|304:264,2,90,8|0|8
352,184,94479,1,8
264,184,94700,2,0,B|264:120,2,45,8|0|8
168,336,95143,6,0,B|108:360|61:303,1,90
48,242,95586,1,4
65,154,95807,1,4
153,121,96029,1,4
296,112,96471,5,0
376,160,96914,1,0
384,248,97357,1,0
296,272,97578,5,8
208,272,97800,1,0
120,272,98021,1,8
120,184,98243,2,0,B|72:184,2,45,0|0|8
120,96,98685,2,0,B|120:48,2,45,0|0|8
208,96,99128,2,0,B|208:192,1,90,0|8
296,184,99571,2,0,B|296:240,2,45,0|0|8
296,96,100014,2,0,B|296:40,2,45,0|0|8
384,96,100456,2,0,B|384:200,1,90,0|0
384,272,100899,2,0,B|440:272,2,45,8|0|0
296,272,101342,6,0,B|240:272,1,45
208,272,101563,2,0,B|160:240,1,45,0|0
128,224,101785,2,0,B|128:176,1,45
128,136,102006,2,2,B|184:88|328:80,1,180
384,96,102670,1,4
152,192,104884,5,0
256,112,105105,1,0
360,192,105327,1,0
256,272,105548,2,0,B|256:160,1,90
256,182,105880,1,0
256,182,105991,1,4
184,128,106212,1,0
256,80,106434,5,8
328,128,106655,1,0
256,184,106876,1,8
184,128,107098,2,0,B|112:128|112:208,1,90,4|0
120,264,107541,5,0
192,312,107762,1,8
280,312,107983,1,0
368,312,108205,1,8
368,224,108426,2,0,B|368:328,1,90,4|0
280,312,108869,1,0
280,264,108980,1,0
280,216,109090,1,8
288,128,109312,2,0,B|248:72|192:96,1,90,0|4
136,128,109754,1,4
64,184,109976,1,4
136,232,110197,1,0
216,272,110419,1,0
304,312,110640,5,0
392,288,110861,2,2,B|464:224|392:96,1,180
405,122,111525,2,2,B|432:200|440:192|424:208|280:192,1,180
232,192,112190,1,0
144,192,112411,1,0
144,192,112522,1,0
144,192,112632,1,8
144,104,112854,2,0,B|96:104,2,45,0|0|8
232,104,113297,5,0
296,160,113518,1,4
368,216,113739,1,4
296,272,113961,1,4
208,296,114182,5,0
120,296,114403,2,2,B|56:304|40:208,1,90
40,152,114846,1,0
72,64,115068,1,2
248,64,115510,1,2
336,88,115732,1,8
352,176,115953,2,0,B|352:224,1,45
352,264,116175,1,8
264,264,116396,2,4,B|264:160,1,90
176,168,116839,5,0
88,168,117060,1,8
88,256,117281,1,0
88,168,117503,1,8
176,168,117724,5,0
264,168,117946,2,2,B|264:360,1,180
352,352,118610,2,2,B|352:164,1,180
352,172,119274,1,8
352,80,119495,1,0
304,80,119606,1,0
256,80,119717,1,0
168,80,119938,5,4
168,168,120159,1,0
168,256,120381,1,4
256,256,120602,2,0,B|368:256,3,90,4|0|4|0
432,256,121488,2,0,B|432:144,1,90,4|0
432,72,121930,1,0
344,72,122152,2,2,B|160:72,1,180
72,72,122816,1,8
72,160,123037,1,8
112,240,123259,5,0
200,256,123480,2,0,B|264:264|288:200,1,90,0|8
277,221,123923,1,0
344,160,124144,1,0
264,112,124366,2,0,B|216:80|168:136,2,90,8|0|0
344,160,125030,1,0
408,224,125251,5,0
344,288,125473,1,8
256,288,125694,1,0
296,208,125915,1,0
256,288,126137,1,0
208,208,126358,1,8
168,288,126579,1,0
120,208,126801,5,0
208,48,127244,1,4
288,208,127686,2,0,B|192:272|112:200,1,180
200,160,128351,1,0
344,48,128793,1,0
392,120,129015,1,0
392,208,129236,2,0,B|344:288,1,90,4|0
256,296,129679,1,0
168,296,129900,1,8
168,208,130122,5,0
168,120,130343,2,0,B|264:48|344:128,1,180
168,208,131229,2,0,B|200:344|312:336|336:200,1,270
64,192,132557,5,0
240,192,133000,1,0
240,280,133221,1,8
152,280,133442,1,8
152,192,133664,1,8
336,192,134106,1,8
336,280,134328,5,0
424,280,134549,1,4
424,192,134771,1,4
384,112,134992,2,0,B|184:112,1,180,4|0
104,264,135878,2,0,B|312:264,1,180,0|4
376,264,136542,1,0
440,200,136763,1,0
376,136,136984,1,8
312,200,137206,1,0
376,136,137427,1,8
96,64,137870,5,0
96,160,138091,1,0
96,256,138313,1,0
192,256,138534,1,0
192,64,138977,2,0,B|288:64|360:176,1,180
336,248,139641,1,4
256,312,139862,1,4
184,248,140084,1,0
96,72,140527,5,0
440,72,140969,1,0
256,312,141412,1,0
256,200,141634,5,0
184,120,141855,1,0
256,200,142076,2,0,B|352:296|448:208,1,180
488,24,142962,1,0
272,24,143405,2,0,B|152:32|88:168|104:248,1,270
296,304,144511,1,0
456,160,144954,1,0
256,192,145397,12,0,148496
48,184,148939,5,0
192,80,149382,1,0
336,184,149825,1,0
280,256,150046,5,0
192,280,150267,1,0
104,256,150489,1,0
192,224,150710,1,0
192,45,151153,2,0,B|192:229,1,180
328,46,152038,2,0,B|328:238,1,180
256,296,152703,1,0
256,208,152924,1,0
256,32,153145,5,0
168,32,153367,2,0,B|72:32|72:184,1,180
256,120,154031,1,0
344,32,154252,2,0,B|448:32|448:184,1,180
296,344,155138,6,0,B|248:376|200:336,1,90
176,320,155470,1,0
160,272,155581,1,0
256,256,155802,2,0,B|256:160,1,90
72,168,156466,6,0,B|168:168,1,90
168,80,156909,2,0,B|392:80,1,180
352,168,157573,2,0,B|448:168,2,90
256,168,158237,1,0
256,348,158680,2,0,B|256:164,1,180
256,80,159344,1,0
256,168,159565,1,0
48,336,160230,5,0
136,336,160451,1,0
48,72,160894,1,0
136,72,161115,1,0
224,72,161337,6,0,B|312:48|328:136|288:168|208:160,1,180
80,224,162222,1,0
152,272,162443,1,0
192,288,162554,1,0
232,296,162665,1,0
320,288,162886,5,8
376,216,163108,2,0,B|264:200,1,90,0|0
392,144,163550,2,0,B|280:128,1,90,8|0
416,72,163993,2,0,B|312:56,1,90,0|0
240,48,164436,1,8
208,136,164657,2,0,B|152:336,1,180
159,309,165211,1,0
159,309,165321,1,8
72,280,165543,6,0,B|104:184,1,90
128,112,165986,1,0
304,72,166428,1,0
384,112,166650,1,0
384,200,166871,2,0,B|384:280|264:328|152:312,1,270
256,192,175726,12,4,177276
104,136,177497,5,0
184,88,177719,1,8
272,88,177940,1,0
272,88,178051,1,0
272,88,178162,1,0
200,144,178383,6,0,B|224:232,1,90,0|8
248,320,178826,1,0
248,320,179047,1,0
328,280,179269,1,0
328,280,179490,1,8
384,208,179711,1,0
384,208,179822,1,0
384,208,179933,1,0
384,120,180154,1,0
296,120,180375,1,8
208,120,180597,2,0,B|104:120,1,90,0|0
112,208,181040,1,0
112,208,181150,1,0
112,208,181261,1,8
192,312,181482,5,0
272,280,181704,2,0,B|352:224|280:96,1,180
291,118,182368,2,0,B|208:64|112:104,1,180,0|0
119,101,183032,1,8
72,176,183253,1,0
72,216,183364,1,0
72,256,183475,1,8
160,256,183696,2,0,B|256:256,1,90,0|8
160,176,184139,2,0,B|272:176,1,90
336,176,184582,1,0
424,176,184803,1,0
376,312,185024,5,0
288,312,185246,2,2,B|168:312|104:208,1,180
200,192,185910,2,2,B|112:192|48:96,1,180
144,104,186574,1,8
200,32,186796,1,0
232,56,186906,1,0
264,80,187017,1,8
336,136,187238,1,0
336,136,187349,1,0
336,136,187460,1,8
400,200,187681,1,0
400,248,187792,1,0
400,296,187902,1,4
312,296,188124,1,0
224,296,188345,1,4
112,192,188567,5,0
200,192,188788,2,0,B|400:192,1,180
376,104,189452,2,0,B|184:104,1,180
196,104,190006,1,0
196,104,190116,1,8
104,104,190338,1,0
104,104,190448,1,0
104,104,190559,1,8
104,192,190780,5,4
224,320,191002,1,0
352,192,191223,1,4
224,64,191445,6,0,B|224:256,1,180
384,328,192330,1,0
440,264,192552,1,0
440,176,192773,2,0,B|376:96,1,90
320,40,193216,1,8
232,64,193437,1,0
192,80,193548,1,0
152,104,193658,1,8
152,192,193880,2,0,B|152:264,1,45
152,280,194101,5,8
240,280,194323,1,0
424,280,194765,1,0
336,280,194987,1,0
240,280,195208,2,0,B|240:0,1,270,0|4
312,56,196094,5,0
336,144,196315,1,4
272,208,196536,1,0
272,208,196647,1,0
272,208,196758,1,0
192,256,196979,1,0
192,256,197090,1,0
192,256,197201,1,0
104,272,197422,1,0
72,192,197643,5,4
432,192,198086,1,0
256,192,198529,12,4,199193
72,64,202514,5,8
248,64,202956,1,0
296,64,203067,1,0
384,64,203289,1,0
416,96,203399,1,0
432,136,203510,1,0
432,184,203621,1,0
424,224,203731,1,0
392,256,203842,2,0,B|344:328|184:312,1,180
152,272,204506,1,4
