osu file format v7

[General]
AudioFilename: 02-the_killers-human.mp3
AudioLeadIn: 1522
PreviewTime: 104884
Countdown: 0
SampleSet: Normal
StackLeniency: 0.7
Mode: 0
LetterboxInBreaks: 0

[Editor]
Bookmarks: 3725,33393,76344,101141,132136,148963,177632,224237,231326,234647,236861
DistanceSpacing: 0.800000011920929
BeatDivisor: 2
GridSize: 8

[Metadata]
Title:Human
Artist:The Killers
Creator:Remco32
Version:Normal
Source:
Tags:EMA eee

[Difficulty]
HPDrainRate:4
CircleSize:4
OverallDifficulty:4
SliderMultiplier:1.4
SliderTickRate:2

[Events]
//Background and Video events
Video,-300,"Human Live EMA.AVI"
0,0,"the_killers_logo.png"
//Break Periods
2,30699,33386
2,61251,76113
2,204707,222890
//Storyboard Layer 0 (Background)
//Storyboard Layer 1 (Fail)
//Storyboard Layer 2 (Pass)
//Storyboard Layer 3 (Foreground)
//Storyboard Sound Samples
//Background Colour Transformations
3,100,163,162,255

[TimingPoints]
171,442.765216364602,4,2,0,59,1,0
34155.375,-100,4,2,0,100,0,0
76885.375,-100,4,2,0,100,0,0
101460.375,-100,4,2,0,100,0,0
104338.375,-100,4,1,0,90,0,0
125373.375,-100,4,2,0,100,0,0
126258.375,-100,4,1,0,90,0,0
149504.375,-100,4,2,0,100,0,0
162123.375,-100,4,1,0,60,0,0
167879.375,-100,4,1,0,70,0,0
169650.375,-100,4,1,0,80,0,0
171421.375,-100,4,1,0,100,0,0
177277,-100,4,1,0,100,0,1
195779.375,-100,4,2,0,80,0,0
197107.375,-100,4,1,0,100,0,0
223435.375,-100,4,2,0,100,0,0

[Colours]
Combo1 : 30,30,240
Combo2 : 240,30,30

[HitObjects]
128,192,7033,6,0,B|176:112|288:64|360:120|432:192,1,350
424,296,8583,1,0
368,296,8804,1,0
312,296,9026,2,0,B|216:296,2,70
144,144,10354,6,0,B|224:144,1,70
272,144,10797,1,0
384,144,11240,1,0
384,144,11682,1,0
384,144,12125,2,0,B|384:240,1,70
64,64,13675,5,0
120,64,13896,1,0
176,64,14118,2,0,B|208:64|240:96,3,70
248,208,15225,2,0,B|248:352,1,140
248,348,15889,1,0
248,348,16331,1,0
432,144,17438,6,0,B|400:240,1,70
384,256,17881,1,0
312,336,18324,1,0
200,336,18767,1,0
144,336,18988,1,0
88,336,19209,1,0
32,336,19431,1,2
400,304,21423,6,0,B|8:304,1,350
48,192,22973,1,0
48,80,23416,1,0
328,80,24523,5,0
384,80,24744,1,0
440,80,24965,1,0
496,80,25187,2,0,B|496:240,1,140
496,272,25851,1,0
496,328,26072,2,0,B|352:328,1,140
72,312,27622,5,0
72,200,28065,1,0
72,144,28286,1,2
344,96,29393,6,2,B|344:240,1,140
344,288,30057,2,2,B|200:288,1,140,0|2
144,192,34706,5,0
256,192,35149,1,0
312,192,35370,1,0
48,48,36699,6,0,B|480:48,1,420
464,336,39798,2,0,B|32:336,1,420
256,48,43340,5,0
256,104,43561,1,0
184,192,44004,1,0
240,192,44226,1,0
336,192,44668,1,2
256,312,46882,5,0
256,256,47104,1,0
352,192,47546,1,0
296,192,47768,1,2
128,72,49317,6,0,B|208:72,1,70
256,72,49760,1,0
408,232,50646,2,0,B|264:232,1,140
224,264,51310,2,0,B|448:264,1,210
336,200,52417,5,0
336,144,52638,1,0
336,32,53081,1,0
336,88,53302,1,0
336,144,53524,1,0
336,280,54077,1,2
112,48,55959,6,0,B|408:48,1,280
392,48,57509,1,8
416,328,59501,2,0,B|88:328,1,280
136,328,61051,1,8
168,80,77433,5,0
224,80,77654,1,0
272,104,77876,1,0
304,144,78097,1,0
304,256,78540,2,0,B|280:328,2,70
303,146,79425,1,0
344,112,79647,1,0
440,56,80090,1,2
449,273,80975,6,0,B|353:273,1,70
321,273,81418,1,0
273,257,81639,1,0
193,177,82082,1,0
273,257,82525,1,0
321,273,82746,1,0
369,289,82968,1,0
417,273,83189,1,0
128,96,84517,5,0
168,96,84739,2,0,B|200:80|232:112,1,70
256,152,85181,1,0
288,176,85403,1,0
328,200,85624,1,0
368,184,85846,2,0,B|368:120|320:104,2,70,0|0|0
368,232,86510,2,0,B|368:296|320:312,2,70,0|0|0
400,208,87174,1,4
304,56,88059,6,0,B|208:56|168:104,1,140
128,136,88724,1,0
96,184,88945,1,0
128,224,89166,1,0
168,264,89388,2,0,B|224:264|256:232,1,70
288,224,89830,2,0,B|432:144,2,140,0|0|8
288,224,91159,1,2
288,224,91602,1,2
280,120,92044,5,0
224,120,92266,2,0,B|152:128|120:192|120:216|152:272|232:288|256:288,1,280
360,288,93594,2,0,B|432:288,3,70
192,288,95144,5,0
192,232,95365,1,0
192,176,95586,1,0
232,136,95808,2,0,B|264:96|200:64|176:64|144:88|136:120|144:144|224:120,1,210
320,136,96915,1,0
432,136,97357,1,2
152,96,98464,5,0
152,96,98686,1,0
152,96,98907,1,0
152,96,99129,1,0
368,272,100235,5,0
368,272,100457,1,0
368,272,100678,1,0
368,272,100900,1,0
96,216,102006,6,2,B|168:328|312:248,2,210
208,216,103778,1,0
320,216,104220,1,0
432,216,104663,1,2
432,160,104884,6,0,B|432:112|400:80|320:80,1,140
280,80,105549,1,0
224,80,105770,1,0
168,80,105991,1,0
112,80,106213,2,0,B|112:168,3,70,2|0|2|0
112,264,107320,1,2
168,264,107541,6,0,B|336:264,1,140
360,264,108205,1,8
256,216,108648,1,0
256,160,108869,1,0
256,104,109091,1,0
256,48,109312,1,0
256,104,109534,1,0
256,160,109755,1,0
256,216,109976,1,0
464,48,110862,2,0,B|32:48,1,420
136,112,112633,5,0
192,112,112854,1,0
248,112,113076,1,0
304,112,113297,1,0
360,112,113518,1,0
216,200,114183,5,0
272,200,114404,1,0
216,360,115068,2,0,B|440:360,1,210,0|0
440,56,117725,5,0
384,56,117946,1,0
328,56,118167,1,0
272,56,118389,2,0,B|168:56,1,70
144,56,118832,1,2
88,56,119053,1,2
88,112,119274,1,2
144,112,119496,1,2
200,112,119717,1,0
256,112,119938,1,8
312,112,120160,6,0,B|416:112,1,70
440,112,120603,2,0,B|440:192|352:192|352:256,1,140
272,288,121488,2,2,B|272:352|216:352,1,70,2|0
128,352,122152,2,0,B|64:352|40:328|40:264,1,140,2|8
96,112,123259,5,0
96,112,123481,1,0
208,112,123923,2,0,B|368:112,2,140
152,112,125030,1,0
40,112,125473,1,2
40,112,125916,1,2
40,112,126359,1,8
48,216,126801,5,0
160,216,127244,1,0
272,216,127687,2,0,B|496:216,1,210
184,328,130343,2,0,B|504:328,1,280,0|0
464,328,131893,1,0
464,216,132336,5,0
464,160,132557,1,0
464,104,132779,1,0
464,56,133000,1,0
408,80,133221,1,0
408,136,133443,1,0
408,192,133664,1,8
408,248,133886,1,8
408,304,134107,1,8
352,304,134328,6,0,B|176:304,1,140
152,304,134993,1,0
96,304,135214,2,0,B|64:360|24:368,2,70
96,248,135878,1,0
96,136,136321,1,4
480,48,137870,2,0,B|480:344,1,280
480,328,138977,1,0
312,328,139642,1,4
312,328,139863,1,0
40,72,141634,5,0
96,72,141855,1,0
152,72,142077,1,0
208,72,142298,2,0,B|280:72|344:-16|240:-24|232:88|312:56|360:56,1,210
352,56,143405,1,0
352,168,143848,2,0,B|432:168,2,70,0|0|0
352,168,144512,1,0
352,168,144733,2,0,B|248:168,1,70
168,168,145397,6,0,B|120:184|104:216,4,70
224,168,146504,1,0
280,168,146726,1,0
336,168,146947,1,2
448,168,147390,1,0
448,280,147833,1,8
392,280,148054,1,8
336,280,148275,1,8
280,280,148497,1,8
48,48,150047,6,2,B|480:48,1,420
464,336,153146,2,2,B|32:336,1,420,2|10
480,64,156688,6,0,B|392:176|488:336,1,280,0|0
483,326,158016,1,4
32,64,160230,2,0,B|120:176|24:336,1,280
29,326,161558,1,2
112,328,162001,1,2
312,288,162665,6,0,B|456:288,1,140,0|2
456,64,163994,2,0,B|368:64,1,70,2|0
336,64,164436,1,0
280,64,164658,2,8,B|120:64,1,140
48,200,165765,2,0,B|480:200,1,420
468,200,167536,1,0
472,312,167979,5,0
360,312,168421,1,2
248,312,168864,1,0
136,312,169307,1,0
24,312,169750,1,0
24,200,170192,1,2
136,200,170635,5,0
248,200,171078,1,0
360,200,171521,1,0
472,200,171963,1,2
472,88,172406,5,0
360,88,172849,1,0
248,88,173292,1,0
136,88,173734,1,10
256,192,174177,12,6,177277
416,56,178383,6,0,B|376:56|344:88,1,70
304,112,178826,1,0
272,160,179048,2,0,B|432:160,4,140
104,160,181483,5,0
104,216,181704,1,0
104,216,182147,1,0
104,272,182368,1,0
104,272,182811,1,2
160,272,183033,5,0
216,272,183254,1,0
272,272,183475,1,0
328,272,183697,1,0
272,272,183918,1,0
216,272,184139,1,0
160,272,184361,1,0
464,40,185025,6,0,B|32:40,1,420
144,176,187017,1,0
200,176,187239,1,0
256,192,187460,1,0
312,208,187682,1,0
368,208,187903,1,0
464,344,188567,2,0,B|32:344,1,420
272,184,191002,5,0
272,240,191224,1,0
216,240,191445,2,0,B|224:192|192:168,2,70
120,304,192331,1,8
288,304,192995,1,10
448,72,194102,2,0,B|88:72,1,350
104,240,195873,1,4
504,48,197644,6,0,B|0:48,1,490
136,168,199858,1,0
192,168,200079,1,0
248,168,200300,1,0
304,168,200522,1,0
360,168,200743,1,0
360,224,200965,1,0
304,224,201186,5,0
248,224,201407,1,0
192,224,201629,1,0
136,224,201850,1,0
88,200,202071,1,2
40,328,202957,6,0,B|368:328,1,280
320,328,204507,1,8
160,96,224210,5,0
352,96,224652,1,0
352,288,225095,2,0,B|120:288,1,210,0|0
256,80,227530,5,0
256,136,227752,1,0
256,248,228195,1,0
256,248,228637,1,0
256,192,229080,12,4,230851
160,288,231294,5,0
352,288,231737,1,0
360,88,232179,2,0,B|136:88,1,210
256,192,234615,12,2,236386
