osu file format v6

[General]
AudioFilename: The Killers - Bones.mp3
AudioLeadIn: 0
PreviewTime: 55708
Countdown: 1
SampleSet: Normal
StackLeniency: 0.7
Mode: 0
LetterboxInBreaks: 1

[Editor]
Bookmarks: 20752,33222,55798,70634,77299,114280,128041,142661
DistanceSpacing: 1
BeatDivisor: 4
GridSize: 8

[Metadata]
Title:Bones
Artist:The Killers
Creator:mrtn
Version:eee!!!
Source:
Tags:

[Difficulty]
HPDrainRate:6
CircleSize:4
OverallDifficulty:6
SliderMultiplier:2.2
SliderTickRate:2

[Events]
//Background and Video events
0,0,"bg.jpg"
//Break Periods
2,34924,39479
2,48685,49800
2,70832,75603
2,98140,106566
2,142865,159677
//Storyboard Layer 0 (Background)
//Storyboard Layer 1 (Fail)
//Storyboard Layer 2 (Pass)
//Storyboard Layer 3 (Foreground)
//Storyboard Sound Samples
//Background Colour Transformations
3,100,163,162,255

[TimingPoints]
5480,430.045871559633,4,2,0,100,1,0
6770,-100,4,1,0,100,0,0
20423,-100,4,1,0,59,0,0
56655,-100,4,1,0,100,0,1
70846,-100,4,1,0,100,0,0
115142,-100,4,1,0,100,0,1
127989,-100,4,1,0,100,0,0
128903,-100,4,1,0,100,0,1
161479,-200,4,1,0,28,0,0
185131,-200,4,1,0,41,0,0
185561,-200,4,1,0,51,0,0
185991,-200,4,1,0,61,0,0
186421,-200,4,1,0,72,0,0
186851,-200,4,1,0,84,0,0
187281,-100,4,1,0,100,0,0

[Colours]
Combo1 : 138,66,61
Combo2 : 245,182,141
Combo3 : 195,196,192
Combo4 : 148,143,116

[HitObjects]
152,184,5480,5,0
312,40,5911,1,0
360,256,6341,1,0
152,184,6771,5,4
40,184,6986,1,0
96,88,7201,1,0
208,88,7416,1,4
256,184,7631,2,4,B|256:296,1,110
256,294,8061,1,8
368,296,8276,2,4,B|448:288|480:112,1,220
400,48,8921,5,8
288,48,9136,1,0
176,56,9351,2,0,B|72:120,1,110,8|0
82,113,9781,1,0
82,113,9996,1,0
82,113,10211,1,4
88,224,10426,5,0
128,328,10641,1,0
216,256,10856,2,0,B|280:144,3,110
368,104,11716,1,0
480,104,11931,2,0,B|480:232,1,110
480,214,12361,1,0
432,312,12576,2,4,B|312:312,3,110
208,312,13436,1,0
112,248,13651,6,4,B|40:208|64:56|120:48,1,220
216,48,14296,1,8
328,56,14511,2,4,B|400:96|376:248|320:256,1,220
334,250,15157,1,8
112,248,15587,1,0
112,136,15802,1,0
224,136,16017,1,8
224,248,16232,1,8
112,248,16447,1,4
112,136,16662,1,4
328,136,17092,5,0
432,328,17522,1,8
432,216,17737,1,0
432,104,17952,1,8
240,216,18382,1,0
240,104,18597,1,8
240,320,19027,1,0
240,216,19242,1,4
240,104,19457,1,0
160,24,19672,1,4
120,120,19887,5,0
48,208,20102,1,0
120,296,20317,1,0
232,296,20532,2,0,B|464:296,1,220,8|0
456,184,21177,5,0
456,96,21392,1,0
456,184,21607,1,0
456,96,21822,5,8
352,56,22037,1,0
272,136,22252,1,8
192,208,22467,1,0
104,144,22682,1,8
48,48,22897,2,4,B|-8:136|8:256|64:248,1,220
136,312,23542,5,0
240,336,23757,1,8
344,312,23972,1,8
464,128,24403,1,8
344,312,24833,1,0
240,336,25048,1,0
136,312,25263,2,0,B|72:240|96:208,1,110
88,104,25693,5,4
88,104,25908,1,0
160,24,26123,1,8
232,104,26338,1,4
232,104,26553,1,4
264,208,26768,5,0
328,120,26983,1,8
392,208,27198,1,0
328,296,27413,2,4,B|296:352|96:344,1,220
72,128,28273,1,8
152,48,28488,5,0
176,152,28703,1,8
264,88,28918,1,0
312,176,29133,2,0,B|440:176,2,110,8|0|8
312,176,29778,1,0
408,320,30208,5,0
320,248,30423,1,0
248,336,30638,1,0
184,248,30853,1,4
40,192,31283,5,4
256,40,31713,1,8
472,192,32143,1,4
256,344,32573,1,8
112,120,33218,5,0
168,24,33433,1,0
232,112,33649,1,0
288,200,33864,1,0
352,112,34079,1,0
416,200,34294,2,4,B|416:336|248:328,1,220
248,248,40529,5,0
136,248,40744,1,0
200,160,40959,1,8
312,160,41174,1,8
256,64,41389,1,0
144,64,41604,1,0
64,240,42034,6,4,B|56:304|160:344,1,110
232,328,42464,1,0
344,328,42679,1,0
456,328,42894,1,0
408,224,43110,1,0
408,112,43325,1,0
312,168,43540,2,4,B|80:168,1,220
56,64,44185,1,0
168,64,44400,1,0
280,64,44615,1,4
472,192,45045,5,4
256,344,45475,1,4
40,192,45905,1,4
256,192,46335,12,0,48485
120,72,50850,5,0
120,184,51065,1,0
232,184,51280,1,0
232,72,51495,1,8
448,72,51925,1,0
448,288,52354,1,8
448,72,52786,1,0
296,232,53216,1,8
80,192,53646,5,0
192,192,53861,1,4
408,192,54291,1,0
336,272,54506,1,0
408,192,54721,1,0
336,104,54936,1,0
224,104,55151,2,4,B|96:104,1,110
24,176,55581,5,0
24,232,55688,1,0
24,288,55796,1,0
104,336,56011,1,0
160,328,56118,1,0
200,288,56226,1,0
272,216,56441,1,0
328,304,56656,6,4,B|432:288|440:224,1,110
464,152,57086,1,8
392,72,57301,2,4,B|320:24|256:48,1,110
176,56,57731,1,8
80,112,57946,2,4,B|0:192|16:288|128:280,1,220
208,264,58591,5,4
208,264,58806,1,0
208,264,59021,1,4
304,216,59236,5,0
304,104,59451,1,0
392,168,59666,1,0
392,56,59881,1,8
304,104,60096,2,4,B|176:104,1,110
80,104,60526,1,0
128,200,60741,2,4,B|112:304|160:352|264:368,1,220
336,320,61386,1,8
416,240,61601,1,8
256,192,61817,12,4,63107
104,104,63537,5,0
48,192,63752,1,0
160,192,63967,1,0
272,192,64182,2,0,B|416:192,3,110
384,304,65042,5,4
160,304,65472,1,4
48,304,65687,1,0
176,120,66117,1,8
176,232,66332,1,0
288,232,66547,1,8
288,120,66762,2,0,B|296:24|64:16,2,220
256,192,67837,12,4,70632
184,56,76653,5,0
272,120,76868,1,0
360,56,77083,1,0
272,120,77298,2,0,B|272:352,2,220
376,152,78373,5,0
272,120,78588,1,0
168,152,78803,1,0
272,120,79018,1,0
272,232,79233,1,0
360,296,79448,1,0
360,296,79663,1,0
448,128,80093,5,0
384,32,80308,1,0
344,128,80524,1,0
280,32,80739,1,0
344,128,80954,1,0
344,344,81384,1,0
344,232,81599,1,0
176,232,81921,1,0
176,64,82244,1,0
256,192,82459,12,4,84179
80,264,84609,5,0
80,152,84824,1,0
256,24,85254,1,0
256,240,85684,1,0
256,128,85899,2,0,B|256:264,1,110
368,240,86329,1,4
144,240,86759,1,0
256,48,87189,1,4
256,192,87619,12,4,89339
48,192,89769,5,0
112,104,89985,1,0
152,64,90092,1,8
192,104,90200,1,8
264,184,90415,1,8
296,224,90522,1,0
336,264,90630,1,8
416,336,90845,1,0
456,232,91060,6,4,B|456:136|288:56,1,220
112,144,91920,2,2,B|56:232|88:336|160:336,2,220
176,56,92995,1,8
288,56,93210,1,0
288,168,93425,1,8
288,280,93640,2,2,B|520:280,2,220
176,280,94715,1,0
176,168,94930,1,4
176,56,95145,1,0
176,168,95360,6,2,B|56:176|64:-8,2,220
264,104,96435,1,0
344,176,96650,1,4
264,256,96865,1,0
344,176,97080,2,4,B|384:192|440:192|448:136|416:80|440:80|512:128|504:184|472:232|400:256|360:272|360:304|344:320|320:352|240:336,1,440
128,72,107616,5,0
88,176,107831,1,0
192,152,108046,1,0
160,256,108261,2,4,B|400:168,1,220
232,8,109122,2,4,B|8:96,1,220
256,192,109982,12,0,111702
96,88,111917,5,0
152,184,112132,1,4
208,88,112347,1,4
264,184,112562,1,0
288,232,112669,1,0
320,272,112777,1,0
416,224,112992,1,0
384,176,113099,1,0
344,136,113207,1,0
256,64,113422,1,0
208,88,113530,1,0
160,112,113637,1,0
120,152,113745,1,0
88,192,113852,1,4
64,296,114067,5,0
168,328,114282,1,2
272,296,114497,1,2
376,336,114712,1,2
480,296,114927,1,2
256,192,115035,12,0,115787
424,64,116432,5,0
312,64,116647,1,4
88,64,117077,1,0
192,256,117507,1,4
88,208,117722,5,0
192,168,117937,1,2
296,208,118153,1,2
192,256,118368,1,2
256,192,118475,12,0,119228
88,56,120088,5,4
296,112,120518,1,0
120,240,120948,1,4
328,304,121378,2,0,B|408:336|408:224,1,110
405,258,121808,2,4,B|320:240|360:176,1,110
355,183,122238,2,0,B|376:120|288:88,1,110
307,96,122668,2,2,B|224:56|136:88|88:280,1,330
184,328,123528,5,4
384,240,123958,1,0
440,24,124388,1,4
208,48,124818,5,0
136,136,125033,1,0
200,288,125356,1,0
360,312,125678,1,0
400,96,126108,2,0,B|304:72|208:192,1,220
128,256,126753,5,0
216,320,126968,1,0
384,184,127399,1,0
216,40,127829,1,0
216,152,128044,5,0
216,264,128259,1,2
328,264,128474,1,2
328,152,128689,1,2
328,40,128904,1,2
16,192,129549,6,0,B|56:280|80:184|64:168|96:144|136:152|160:296|176:296|184:296|272:232,1,330
224,136,130409,5,2
440,136,130839,1,2
224,136,131269,1,2
120,128,131484,5,0
56,216,131699,1,0
168,216,131914,1,4
56,216,132129,1,0
168,216,132344,1,4
280,216,132559,1,0
216,304,132774,1,0
280,216,132989,6,4,B|416:216|432:144|304:72,2,220,4|4|6
88,96,134279,1,2
280,216,134709,1,2
440,64,135139,5,0
328,64,135354,1,0
216,64,135569,1,0
104,64,135784,2,0,B|80:136|112:304|296:336,1,330
256,192,136644,12,0,138150
256,40,138580,5,0
256,152,138795,1,0
88,296,139225,1,0
256,296,139547,2,0,B|352:288|416:232,1,165
424,128,140085,1,0
320,88,140300,1,0
208,88,140515,1,0
104,128,140730,1,2
256,296,141160,1,2
408,136,141590,1,2
256,192,141805,12,4,142665
64,192,160727,5,0
120,288,160942,1,0
168,192,161157,1,0
216,288,161372,1,0
272,192,161587,2,2,B|256:128|336:88|416:128,2,165
56,320,164167,5,0
96,288,164382,1,0
144,256,164597,1,2
192,232,164812,1,2
248,232,165028,2,2,B|336:248|384:112,1,165
371,143,166748,1,0
152,96,167608,1,4
80,176,168038,5,0
128,272,168468,2,0,B|176:328|296:264,1,165
400,88,169973,1,0
336,176,170403,1,0
224,176,170833,1,0
280,272,171263,1,0
224,288,171478,2,0,B|160:312|104:288,1,110
80,248,172123,2,0,B|80:184|192:168,1,110
208,168,172768,1,0
424,64,174489,5,0
368,64,174704,1,0
368,120,174919,1,0
368,176,175134,1,0
368,232,175349,2,4,B|288:232,1,55
248,232,175779,1,8
192,232,175994,2,4,B|192:160,1,55
192,120,176424,1,8
136,120,176639,2,4,B|136:256,1,110
136,336,177499,1,8
248,336,177929,5,0
304,336,178144,1,0
360,336,178359,2,2,B|416:280,1,55
344,272,178789,2,2,B|304:224,1,55
360,224,179219,2,2,B|408:176,1,55
232,176,180079,1,0
176,176,180294,1,0
120,272,180724,5,4
120,272,180939,1,4
120,272,181154,1,4
120,272,181369,1,8
120,272,181584,1,8
120,272,181799,1,8
224,304,182229,5,0
272,280,182444,1,0
312,240,182659,1,0
344,192,182874,1,0
232,208,183304,1,8
192,168,183519,1,0
168,120,183735,1,8
208,88,183950,1,0
256,56,184165,1,8
304,88,184380,1,0
344,120,184595,1,8
320,168,184810,1,0
280,208,185025,5,8
240,248,185240,2,0,B|192:304,1,55,8|8
152,288,185670,2,0,B|80:288,1,55,8|0
48,256,186100,2,0,B|48:200,1,55,8|0
48,144,186530,2,0,B|88:88,1,55,8|0
136,96,186960,2,0,B|192:96,1,55,8|0
256,192,187390,12,4,189110
