osu file format v5

[General]
AudioFilename: The Killers - Bones.mp3
AudioLeadIn: 0
PreviewTime: 55708
Countdown: 1
SampleSet: Normal
StackLeniency: 0.7
Mode: 0
LetterboxInBreaks: 1

[Editor]
Bookmarks: 20752,33222,55798,70634,77299,114280,128041,142661
DistanceSpacing: 1.79999995231628
BeatDivisor: 4
GridSize: 8

[Metadata]
Title:Bones
Artist:The Killers
Creator:mrtn
Version:Insane
Source:
Tags:

[Difficulty]
HPDrainRate:5
CircleSize:4
OverallDifficulty:7
SliderMultiplier:2.6
SliderTickRate:2

[Events]
//Background and Video events
0,0,"bg.jpg"
//Break Periods
2,20730,29305
2,70827,75747
//Storyboard Layer 0 (Background)
//Storyboard Layer 1 (Fail)
//Storyboard Layer 2 (Pass)
//Storyboard Layer 3 (Foreground)
//Storyboard Sound Samples
//Background Colour Transformations
3,100,163,162,255

[TimingPoints]
5480,430.015050526768,4,2,0,100,1,0
6770,-100,4,1,0,100,0,0
56651,-100,4,1,0,100,0,1
70627,-100,4,1,0,100,0,0
115129,-100,4,1,0,100,0,1
128840,-100,4,1,0,100,0,0
128889,-100,4,1,0,100,0,1

[Colours]
Combo1 : 138,66,61
Combo2 : 245,182,141
Combo3 : 195,196,192
Combo4 : 148,143,116

[HitObjects]
456,48,5479,1,2
456,336,5910,1,2
56,336,6340,1,2
56,48,6770,1,4
344,120,7200,5,8
232,48,7415,1,0
120,120,7630,1,8
232,48,7845,1,0
232,176,8060,1,8
344,120,8275,2,2,B|456:216|352:328|280:320,1,260
184,256,8920,1,8
288,176,9135,1,0
184,256,9350,1,8
80,176,9565,1,0
184,96,9780,2,0,B|184:240,1,130,8|0
184,96,10210,1,4
456,336,10640,5,0
336,288,10855,1,0
296,160,11070,1,8
184,96,11285,1,8
72,152,11500,1,0
32,288,11715,2,2,B|104:360|264:320|256:248,1,260
144,192,12360,1,0
255,260,12575,1,0
368,192,12790,2,8,B|424:128|384:64,1,130
368,192,13220,1,0
256,128,13435,1,0
144,64,13650,2,4,B|48:120|40:256|200:368|280:320,1,390
255,328,14402,1,0
255,328,14510,1,4
464,48,14940,5,0
336,48,15155,2,2,B|192:64|200:248,1,260
312,168,15800,1,0
416,240,16015,5,0
312,320,16230,1,0
208,240,16445,1,0
312,168,16660,1,8
416,88,16875,1,8
312,168,17090,1,4
48,336,17520,6,0,B|48:192,1,130
128,104,17950,1,8
128,104,18165,1,8
208,206,18380,2,0,B|208:336,1,130,0|0
208,336,18702,1,0
208,336,18810,1,0
320,280,19025,2,0,B|320:136,1,130,0|8
320,88,19347,1,0
384,88,19455,1,8
352,32,19562,1,0
288,32,19670,1,8
168,88,19885,5,8
136,32,19993,1,0
104,88,20100,1,8
136,208,20315,1,2
352,208,20530,1,4
256,192,30205,12,4,32570
80,72,33215,5,0
208,72,33430,1,2
312,144,33645,1,0
312,272,33860,2,0,B|240:328|168:280,1,130
88,208,34291,1,2
432,72,34721,1,4
432,200,34936,6,0,B|432:304|392:328,1,130
160,208,35581,2,0,B|168:112|248:120,1,130,8|0
360,120,36011,1,8
234,119,36226,1,0
104,120,36441,1,8
104,248,36656,2,2,B|160:344|296:296|336:240,1,260
424,160,37301,1,8
296,160,37516,1,0
360,48,37731,1,8
232,48,37946,1,0
80,256,38376,5,0
80,256,38591,2,2,B|224:336|280:232|344:312,1,260
424,208,39236,1,0
320,128,39451,1,0
192,128,39666,1,0
88,208,39881,1,0
88,208,40096,2,2,B|136:320|216:336|288:248,1,260
320,128,40741,1,0
192,128,40956,1,0
320,128,41171,2,2,B|416:128|440:200,1,130
464,304,41601,1,0
336,272,41816,1,2
56,48,42246,5,0
56,48,42461,1,0
112,160,42676,1,0
112,160,42891,1,0
224,224,43106,1,0
224,224,43321,1,0
288,328,43536,2,2,B|416:264|344:88,1,260
224,144,44181,1,0
350,103,44396,1,0
456,176,44611,1,0
328,184,44826,1,0
224,264,45041,1,0
456,48,45471,5,8
328,48,45686,1,0
200,48,45901,1,8
456,336,46331,6,2,B|352:336|368:184|248:192,2,260
456,272,47298,1,0
400,240,47406,1,0
456,208,47513,1,0
400,176,47621,1,0
328,56,47836,6,8,B|216:64|224:128,1,130
224,240,48266,1,0
280,208,48374,1,0
280,272,48481,1,0
152,240,48696,1,4
152,112,48911,2,0,B|80:112,2,65
280,112,49341,2,0,B|368:112|416:160,1,130,4|0
402,147,49664,1,0
402,147,49771,1,0
280,112,49986,1,4
280,232,50201,6,0,B|208:232,1,65
248,176,50416,2,0,B|168:176,1,65
208,120,50631,2,0,B|136:120,1,65
176,64,50846,2,0,B|96:64,1,65
88,120,51061,2,2,B|16:184|144:216,1,130
248,176,51491,5,4
464,40,51921,1,4
464,344,52351,1,4
56,344,52781,1,4
56,40,53211,1,4
256,192,53641,5,2
256,192,53856,1,2
464,40,54286,1,2
464,40,54501,1,2
464,344,54931,6,0,B|464:208,1,130,0|2
344,152,55361,1,8
216,152,55576,1,8
88,152,55791,2,8,B|88:288,1,130
216,280,56221,1,0
248,224,56329,1,0
280,280,56436,1,0
312,224,56544,1,0
344,280,56651,1,4
472,56,57081,6,4,B|472:136,2,65,4|4|4
344,56,57511,1,0
216,56,57726,2,0,B|128:48|120:136,1,130,0|4
480,328,58371,6,0,B|392:336|376:248,1,130,8|0
375,136,58801,2,0,B|364:66|276:74,1,130,8|0
376,136,59231,1,8
380,265,59446,1,0
248,264,59661,1,8
128,224,59876,1,0
248,264,60091,1,4
48,48,60521,5,0
176,48,60736,1,0
296,96,60951,1,8
360,208,61166,1,8
360,336,61381,1,0
360,336,61596,2,2,B|456:304|472:216|464:152|424:128,1,260
296,96,62241,1,0
176,152,62456,1,0
176,280,62672,2,8,B|264:280|288:208,2,130
176,152,63317,1,8
282,220,63532,1,4
464,40,63962,5,0
464,40,64177,1,0
344,96,64392,1,0
344,96,64607,1,0
216,96,64822,1,0
216,96,65037,2,2,B|112:136|120:248|224:296,1,260
344,320,65682,2,0,B|424:312|440:240,1,130
448,176,66004,1,0
408,128,66112,1,0
344,144,66219,1,0
312,200,66327,2,0,B|288:264|192:240,1,130,0|4
464,40,66972,6,4,B|368:32|344:80,1,130
312,200,67402,1,8
184,200,67617,1,8
120,88,67832,2,0,B|184:48|248:88,1,130
312,200,68262,1,8
312,328,68477,1,8
440,304,68692,2,8,B|472:232|440:168,1,130
444,177,69014,1,0
444,177,69122,1,0
384,64,69337,1,0
256,64,69552,2,0,B|176:64|144:120,2,130,0|2|0
192,176,70197,1,0
96,264,70412,1,0
192,176,70627,1,0
160,96,76647,5,0
352,96,76862,1,0
352,288,77077,1,0
160,288,77292,2,4,B|64:240|120:176|256:200|288:144,1,260
352,48,77937,6,2,B|448:104|344:232|264:240,1,260
192,136,78582,1,0
320,112,78797,1,0
256,224,79012,2,8,B|144:256|120:216,1,130
72,112,79442,1,0
192,64,79657,2,2,B|280:64|320:216|432:176,1,260
464,304,80302,1,0
336,264,80517,1,0
216,312,80732,1,0
336,264,80947,2,4,B|224:216|128:256|80:192,1,260
88,72,81592,1,0
184,160,81807,1,0
440,160,82237,5,0
360,264,82452,1,8
360,264,82667,1,8
248,328,82882,1,0
248,328,83097,1,0
152,232,83312,1,8
152,232,83527,1,8
208,112,83742,1,4
208,112,83957,1,0
320,48,84172,2,4,B|472:104|440:208|312:200,1,260
208,200,84817,6,0,B|120:232|128:312|232:360|288:304,1,260
328,184,85462,2,4,B|416:184|480:288|400:336|328:328,1,260
224,264,86107,1,0
328,184,86322,1,0
272,64,86537,1,0
144,56,86752,2,8,B|64:96|96:168,1,130,8|0
120,216,87075,1,0
184,216,87182,1,0
272,120,87397,2,0,B|408:120,1,130,0|4
40,344,88042,5,0
40,40,88472,1,8
40,40,88687,1,0
168,40,88902,2,0,B|216:112|152:176,1,130,8|0
168,40,89332,1,8
296,40,89547,1,0
424,40,89762,2,0,B|472:112|408:176,1,130,8|0
421,160,90085,1,0
421,160,90192,1,0
368,200,90300,2,0,B|296:232,1,65
240,216,90515,2,0,B|160:216,1,65
208,160,90730,2,0,B|208:88,1,65,0|0
168,40,90945,1,0
104,40,91052,1,4
472,344,91483,6,2,B|328:344|328:152|280:104|200:80,1,390
104,152,92343,1,0
168,40,92558,1,2
104,152,92773,1,0
168,272,92988,1,2
464,40,93418,6,0,B|464:160|320:152|304:232,1,260,4|2
432,208,94063,2,0,B|432:312|360:312,1,130,0|2
240,312,94493,1,0
200,184,94708,1,2
48,344,95138,6,4,B|192:352|168:224|56:176,1,260
200,184,95783,1,0
288,88,95998,1,2
368,184,96213,1,0
456,88,96428,1,2
48,40,96858,6,4,B|48:128|200:104|144:272,1,260
40,184,97503,1,0
148,257,97718,1,2
256,184,97933,1,0
344,88,98148,1,2
424,184,98363,6,8,B|464:248|424:320,1,130
312,256,98793,1,0
208,184,99008,1,0
104,104,99223,2,2,B|56:184|96:240,1,130
208,184,99653,1,8
312,104,99868,1,0
408,184,100083,1,0
312,256,100298,2,4,B|296:320|168:296|128:248|56:296,1,260
104,160,100943,1,8
216,96,101158,1,0
344,96,101373,2,8,B|400:152|368:232,1,130,8|4
280,304,101803,6,2,B|184:336|184:160|48:216,2,260
256,176,102878,1,0
256,48,103093,2,8,B|160:72|144:120,1,130,8|0
256,48,103523,2,8,B|352:72|368:120,1,130,8|0
416,232,103953,1,8
416,296,104060,1,0
360,264,104168,1,0
304,232,104275,1,0
304,296,104383,1,8
176,264,104598,2,0,B|128:216|160:136,1,130,0|8
176,264,105028,1,4
464,48,105458,6,0,B|456:128|360:112,1,130,2|0
304,112,105781,1,0
240,112,105888,1,0
176,136,105996,1,0
176,200,106103,2,0,B|112:256|48:192,2,130,0|4|0
240,184,106641,1,0
304,184,106748,1,0
272,240,106856,1,0
272,304,106963,1,0
400,304,107178,1,0
448,184,107393,1,8
344,112,107608,2,0,B|200:112,1,130
344,112,108038,1,0
448,184,108253,1,4
48,344,108683,5,2
48,40,109113,1,2
464,40,109543,1,2
464,344,109973,1,2
256,192,110403,5,0
128,192,110618,2,8,B|128:104|320:104|368:152,1,260
464,200,111263,1,4
48,344,111693,5,0
128,240,111908,1,0
128,112,112123,1,0
232,40,112338,2,2,B|328:112|216:216|272:296,1,260
376,344,112983,1,0
376,216,113198,1,0
376,88,113413,1,0
344,144,113521,1,0
312,88,113628,1,0
280,144,113736,1,0
248,88,113843,2,0,B|112:88,1,130
88,144,114166,1,0
88,208,114273,2,0,B|88:296,1,65
88,336,114488,2,0,B|168:336,1,65
152,272,114703,2,0,B|152:192,1,65
152,144,114918,1,0
152,272,115133,1,4
472,40,115563,5,0
344,40,115778,2,2,B|240:56|304:216|416:200,1,260
456,320,116423,1,0
336,272,116638,2,0,B|248:280|200:168|96:136,1,260,0|4
216,64,117283,5,0
296,168,117498,1,0
424,168,117713,2,0,B|440:240|344:248,1,130,8|0
216,248,118143,1,8
112,168,118358,1,0
32,64,118573,1,4
480,64,119003,6,8,B|344:64,1,130
232,112,119433,1,8
232,112,119648,1,8
112,168,119864,1,0
112,168,120079,2,2,B|88:264|280:304|320:232,1,260
392,152,120724,2,0,B|344:88|272:80,1,130
432,104,121154,2,8,B|384:40|312:32,2,130,8|8|8
432,232,121799,1,0
320,296,122014,1,14
64,296,122444,6,0,B|64:160,1,130
64,296,122874,1,0
192,296,123089,2,0,B|192:160,1,130
288,72,123519,2,2,B|400:104|408:240|296:264,1,260
248,144,124164,2,0,B|152:120|136:56,1,130
142,74,124486,1,0
142,74,124594,1,0
64,176,124809,1,0
120,296,125024,1,0
248,296,125239,1,0
304,264,125346,1,0
360,232,125454,1,2
40,344,125884,5,2
96,224,126099,1,0
96,96,126314,2,0,B|176:72|240:120,1,130
320,192,126744,1,0
448,192,126959,5,0
392,152,127066,1,0
384,88,127174,2,0,B|320:56|248:104,1,130
260,96,127496,1,0
208,136,127604,2,0,B|160:200,1,65
232,184,127819,2,0,B|184:248,1,65
256,240,128034,2,0,B|216:296,1,65,0|0
152,272,128249,2,0,B|104:216,1,65,0|0
120,160,128464,2,0,B|160:104,1,65
216,72,128679,1,0
344,72,128894,1,4
40,344,129324,5,8
152,272,129539,1,0
264,344,129754,1,8
376,272,129969,1,0
264,200,130184,1,8
264,200,130399,2,2,B|184:200|168:96|272:56|352:104,1,260
264,200,131044,5,4
152,272,131259,1,4
152,144,131474,2,0,B|152:64|248:48,1,130
152,144,131904,1,8
152,272,132119,1,8
264,328,132334,2,2,B|408:320|408:160|368:120,1,260
280,56,132979,1,0
152,56,133194,2,8,B|80:72|32:128,1,130
40,248,133624,1,8
40,248,133839,2,4,B|104:336|232:264|240:176,2,260,4|2|2
360,40,135129,6,0,B|280:40|248:120,2,130
424,152,135774,2,2,B|432:264|264:224|208:304,1,260
96,304,136419,1,0
96,176,136634,2,8,B|96:96|192:96,2,130
224,176,137279,2,2,B|328:168|240:40|440:56,1,260
432,184,137924,6,0,B|432:256|344:280,1,130,4|0
224,288,138354,1,0
224,288,138462,1,0
224,288,138569,1,0
96,248,138784,2,8,B|88:152|128:120,1,130
224,48,139214,2,2,B|336:64|352:208|192:176,1,260
224,48,139859,1,0
96,48,140074,1,8
96,48,140289,1,0
96,176,140504,1,8
96,176,140719,1,4
464,336,141149,5,0
464,272,141257,1,0
408,240,141364,2,0,B|336:232|328:136,1,130,0|2
216,88,141794,2,0,B|152:128,1,65
216,152,142009,1,0
272,184,142117,2,0,B|208:224,1,65
96,272,142439,1,2
216,328,142654,1,4
