osu file format v6

[General]
AudioFilename: The Killers - Great Big Sled.mp3
AudioLeadIn: 1004
PreviewTime: 149406
Countdown: 1
SampleSet: Normal
StackLeniency: 0.7
Mode: 0
LetterboxInBreaks: 1

[Editor]
DistanceSpacing: 0.800000011920929
BeatDivisor: 4
GridSize: 8

[Metadata]
Title:A Great Big Sled
Artist:The Killers
Creator:eee
Version:eeeasy
Source:
Tags:Christmas

[Difficulty]
HPDrainRate:3
CircleSize:3
OverallDifficulty:3
SliderMultiplier:1.4
SliderTickRate:2

[Events]
//Background and Video events
0,0,"Christmas1.jpg"
//Break Periods
2,8513,10154
2,27263,32888
2,49763,55623
2,61950,62654
2,69450,74841
2,79528,80466
2,109762,115623
2,136013,144216
2,173513,175623
2,181013,183123
2,226012,228357
//Storyboard Layer 0 (Background)
//Storyboard Layer 1 (Fail)
//Storyboard Layer 2 (Pass)
//Storyboard Layer 3 (Foreground)
//Storyboard Sound Samples
//Background Colour Transformations
3,100,120,252,236

[TimingPoints]
813,468.75,4,1,0,100,1,0
1398,-100,4,1,0,70,0,0
2569,-100,4,1,0,100,0,0
3273,-100,4,1,0,70,0,0
4444,-100,4,1,0,100,0,0
5148,-100,4,1,0,70,0,0
5382,-100,4,1,0,80,0,0
5616,-100,4,1,0,90,0,0
5850,-100,4,1,0,100,0,0
6672,-100,4,1,0,70,0,0
7257,-100,4,1,0,100,0,0
11359,-100,4,1,0,50,0,0
11827,-100,4,1,0,100,0,0
26945,-100,4,1,0,70,0,0
27180,-200,4,1,0,50,0,0
34445,-200,4,1,0,60,0,0
56711,-100,4,1,0,70,0,0
56945,-100,4,1,0,80,0,0
86945,-100,4,1,0,100,0,0
87063,-100,4,1,0,100,0,1
110383,-100,4,1,0,100,0,0
121164,-100,4,1,0,80,0,0
148117,-100,4,1,0,59,0,0
150695,-100,4,1,0,100,0,0
150812,-100,4,1,0,100,0,1
164289,-100,4,1,0,50,0,0
164758,-100,4,1,0,70,0,0
165227,-100,4,1,0,100,0,0
165813,-100,4,1,0,100,0,1
173430,-100,4,1,0,30,0,0
188195,-100,4,1,0,61,0,0
188429,-100,4,1,0,30,0,0
189367,-100,4,1,0,40,0,0
189601,-100,4,1,0,50,0,0
189835,-100,4,1,0,60,0,0
190069,-100,4,1,0,70,0,0
191943,-100,4,1,0,30,0,0
195695,-100,4,1,0,70,0,0
195929,-100,4,1,0,30,0,0
196398,-100,4,1,0,40,0,0
196632,-100,4,1,0,50,0,0
196866,-100,4,1,0,60,0,0
197100,-100,4,1,0,69,0,0
197568,-100,4,1,0,80,0,0
197802,-100,4,1,0,30,0,0
199328,-100,4,1,0,50,0,0
201086,-100,4,1,0,70,0,0
203195,-100,4,1,0,100,0,0
203313,-100,4,1,0,100,0,1
203430,-100,4,1,0,50,0,0
205070,-100,4,1,0,100,0,0
205304,-100,4,1,0,50,0,0
206945,-100,4,1,0,100,0,0
207179,-100,4,1,0,50,0,0
208820,-100,4,1,0,100,0,0
209054,-100,4,1,0,50,0,0
210695,-100,4,1,0,100,0,0
210929,-100,4,1,0,50,0,0
212570,-100,4,1,0,100,0,0
212804,-100,4,1,0,50,0,0
215852,-100,4,1,0,69,0,0
216086,-100,4,1,0,50,0,0
216320,-100,4,1,0,100,0,0
216554,-100,4,1,0,50,0,0
217023,-100,4,1,0,60,0,0
217257,-100,4,1,0,70,0,0
217491,-100,4,1,0,80,0,0
217725,-100,4,1,0,90,0,0
218254,-100,4,1,0,100,0,0
218313,-100,4,1,0,100,0,1
227151,-100,4,1,0,0,0,0

[Colours]
Combo1 : 255,255,255
Combo2 : 4,191,4
Combo3 : 207,7,7

[HitObjects]
88,88,813,1,4
200,88,1281,2,0,B|352:88,2,140
200,200,2688,5,4
312,200,3156,2,0,B|464:200,2,140
312,312,4563,5,4
200,312,5031,2,0,B|56:312,2,140
152,192,6438,6,6,B|191:122|268:100|356:133|392:208,2,280
96,200,11594,5,0
152,104,12063,5,4
208,200,12531,1,0
272,104,13000,2,0,B|432:256,1,210
264,304,14406,2,0,B|152:192,3,140,0|0|4|4
96,120,16281,5,0
200,72,16750,1,0
304,112,17219,1,0
360,112,17453,2,0,B|408:152|416:200|408:240,1,140
304,280,18391,2,2,B|248:328|144:320|120:240,1,210
128,128,19563,5,4
232,80,20031,1,8
336,128,20500,1,0
440,80,20969,1,8
440,80,21203,1,8
440,248,21906,5,8
336,208,22375,1,0
232,168,22844,1,12
128,120,23313,1,4
128,232,23781,5,0
192,328,24250,2,0,B|288:344|352:296|368:232,1,210
256,208,25422,12,4,27063
96,192,34328,5,0
96,192,34563,2,0,B|160:192,1,35
216,192,35500,1,0
296,192,36203,1,0
376,192,36906,1,0
432,192,37375,1,0
432,136,37844,1,0
432,80,38313,2,0,B|392:40|344:40|304:88,3,140
280,128,41594,1,0
224,144,42063,6,2,B|184:144|176:184,2,52.5
256,208,43469,12,0,45813
208,96,46281,5,8
256,64,46750,1,0
304,96,47219,1,8
344,128,47688,2,0,B|368:208|288:264|184:248|160:160,1,280,0|4
56,176,57063,5,4
104,72,57531,1,8
144,176,58000,1,0
192,72,58469,1,8
232,176,58938,5,0
280,72,59406,1,8
312,176,59875,1,0
360,72,60344,1,8
400,176,60813,1,2
360,280,61281,1,2
312,176,61750,1,2
48,280,64094,5,0
160,280,64563,1,2
384,280,65500,2,0,B|344:208|248:192,3,140
176,248,67375,5,0
256,328,67844,1,0
328,248,68313,1,4
256,168,68781,1,0
176,248,69250,1,0
48,176,76281,5,0
160,168,76750,1,0
264,128,77219,1,0
320,32,77688,2,0,B|400:16|440:96,1,140
464,136,78391,2,0,B|480:216|440:272,2,140
256,336,81906,5,2
256,224,82375,1,0
256,112,82844,1,2
256,112,83078,1,2
88,112,83781,1,2
88,224,84250,2,0,B|88:320,2,70,0|0|2
312,224,85656,5,0
368,224,85891,1,0
368,56,86594,1,0
256,56,87063,6,0,B|120:40|8:160|80:296|112:280,1,350,4|0
208,312,88703,6,0,B|320:344|336:336|352:328|288:224|304:208|320:192|448:208|464:192|496:168|392:88,1,420
312,56,90578,6,0,B|224:40|168:64|136:144|232:176|400:136|344:304|296:344|144:296,1,490,4|0
96,232,92688,1,0
56,128,93156,5,0
96,88,93391,1,0
256,48,94094,1,0
368,80,94563,6,0,B|456:208|432:296|376:320|280:320|264:304,1,350,4|0
160,288,96203,6,0,B|48:288|64:152|88:88|128:144|120:216|128:248|240:56|288:40|328:104,1,420,4|0
400,152,98078,6,0,B|464:280|432:328|360:344|248:352|176:320|128:296|120:288|160:248|224:240|256:256|240:288|216:312|176:328|128:336|80:312|64:272|80:224,1,630,4|0
80,120,100656,5,0
136,120,100891,1,0
304,120,101594,1,0
416,120,102063,1,4
144,288,103234,6,0,B|48:288,3,70,0|0|0|4
400,64,105109,6,0,B|496:64,3,70,0|0|0|4
64,64,106984,5,0
64,64,107219,1,0
176,64,107688,2,4,B|208:64|256:80|264:120|248:144|248:144|72:144,2,280
256,208,117063,12,0,120344
72,192,121281,5,2
184,192,121750,1,2
408,192,122688,1,2
256,24,123625,1,2
256,136,124094,1,4
256,248,124563,1,4
96,88,125500,5,2
256,248,126438,1,2
408,88,127375,1,2
336,176,127844,1,4
256,248,128313,1,4
96,88,129250,5,2
96,312,130188,1,2
288,200,131125,1,2
344,104,131594,1,4
400,200,132063,1,4
112,200,133000,5,2
400,200,133938,1,2
256,32,134875,1,2
256,144,135344,1,4
256,256,135813,1,4
256,48,145656,5,0
256,160,146125,1,0
256,272,146594,1,2
256,272,146828,1,2
424,272,147531,1,2
424,160,148000,2,0,B|424:64,2,70,0|2|2
200,160,149406,5,0
144,160,149641,1,0
144,328,150344,1,0
256,328,150813,6,0,B|392:344|504:224|432:88|400:104,1,350,4|0
304,72,152453,6,0,B|192:40|176:48|160:56|224:160|208:176|192:192|64:176|48:192|16:216|120:296,1,420
200,328,154328,6,0,B|288:344|344:320|376:240|280:208|112:248|168:80|216:40|368:88,1,490,4|0
416,152,156438,1,4
456,256,156906,5,0
416,296,157141,1,0
256,336,157844,1,0
144,304,158313,6,0,B|56:176|80:88|136:64|232:64|248:80,1,350,4|0
352,96,159953,6,0,B|464:96|448:232|424:296|384:240|392:168|384:136|272:328|224:344|184:280,1,420,4|0
112,232,161828,6,0,B|48:104|80:56|152:40|264:32|336:64|384:88|392:96|352:136|288:144|256:128|272:96|296:72|336:56|384:48|432:72|448:112|432:160,1,630,4|0
432,264,164406,5,0
376,264,164641,1,0
208,264,165344,1,0
96,264,165813,1,4
368,96,166984,6,0,B|464:96,3,70,0|0|0|4
112,320,168859,6,0,B|16:320,3,70,0|0|0|4
312,48,170734,5,0
312,48,170969,1,0
200,48,171438,2,6,B|168:48|120:64|112:104|128:128|128:128|304:128,2,280
384,296,177063,5,0
272,296,177531,1,0
160,296,178000,1,0
160,184,178469,1,0
160,72,178938,1,0
272,72,179406,5,2
384,72,179875,1,2
384,184,180344,1,2
272,184,180813,1,2
128,296,184563,5,0
240,296,185031,1,0
352,296,185500,1,0
352,184,185969,1,0
352,72,186438,1,0
240,72,186906,5,2
128,72,187375,1,2
128,184,187844,1,2
240,184,188313,1,4
440,88,189250,5,0
328,88,189719,1,0
216,88,190188,1,4
40,224,191125,5,0
152,224,191594,1,0
264,224,192063,2,0,B|416:224,1,140,4|0
400,112,193000,2,0,B|248:112,1,140
160,64,193938,2,0,B|160:232,1,140
64,144,194875,2,0,B|64:312,1,140
176,280,195813,1,4
400,280,196750,5,0
400,168,197219,1,0
400,56,197688,1,4
176,56,198625,5,0
176,168,199094,1,0
176,280,199563,1,4
280,80,200500,5,0
336,176,200969,1,0
224,176,201438,1,4
256,208,201906,12,4,203313
128,80,205188,5,4
360,80,207063,5,4
360,310,208938,5,4
136,310,209875,5,4
136,86,210813,5,4
256,192,212688,5,4
192,88,214563,6,4,B|224:40|280:40|320:96,4,140
104,160,216906,6,0,B|96:264|160:328|384:320|440:240,1,420,0|4
424,144,218781,5,8
336,72,219250,1,0
224,72,219719,1,8
112,72,220188,5,4
168,168,220656,1,8
280,168,221125,1,0
224,256,221594,1,8
280,168,222063,5,4
344,256,222531,1,8
392,160,223000,1,0
296,112,223469,1,8
200,56,223938,6,0,B|112:72|128:144|240:176|232:256|120:256,2,280,4|0|4
256,208,229797,12,0,231906
