osu file format v5

[General]
AudioFilename: The Kelly Family - Fell In Love With An Alien.mp3
AudioLeadIn: 0
PreviewTime: -1
Countdown: 1
SampleSet: Normal
StackLeniency: 0.7
Mode: 0
LetterboxInBreaks: 1

[Metadata]
Title:Fell in love with a alien
Artist:The Kelly Family
Creator:Rhyme12
Version:Normal
Source:-
Tags:-

[Difficulty]
HPDrainRate:5
CircleSize:5
OverallDifficulty:5
SliderMultiplier:1.7
SliderTickRate:2

[Events]
//Background and Video events
0,0,"Osu Alien.jpg"
//Break Periods
2,51533,62300
//Storyboard Layer 0 (Background)
//Storyboard Layer 1 (Failing)
//Storyboard Layer 2 (Passing)
//Storyboard Layer 3 (Foreground)
//Storyboard Sound Samples
//Background Colour Transformations
3,100,0,0,0

[TimingPoints]
0,1000,4,1,0,100,1

[Colours]
Combo1 : 173,18,173
Combo2 : 128,0,128
Combo3 : 255,0,128
Combo4 : 255,0,255

[HitObjects]
101,91,10833,1,0
101,91,11166,1,0
101,91,11500,1,0
101,91,11833,1,0
223,94,13500,1,0
223,94,13833,1,0
223,94,14166,1,0
223,94,14500,1,0
172,124,16166,5,0
172,124,16500,1,0
172,124,16833,1,0
172,124,17166,1,0
296,129,18666,1,0
296,129,19000,1,0
296,129,19333,1,0
296,129,19666,1,0
73,302,21333,5,0
73,302,21666,1,0
73,302,22000,1,0
73,302,22333,1,0
244,305,23833,1,0
244,305,24166,1,0
244,305,24500,1,0
244,305,24833,1,0
65,73,26500,1,0
65,73,26833,1,0
65,73,27166,1,0
65,73,27500,1,0
252,76,29166,1,0
252,76,29500,1,0
252,76,29833,1,0
252,76,30166,1,0
160,147,30833,1,0
135,188,31166,1,0
169,84,32000,5,0
242,99,32333,1,0
288,100,32666,1,0
376,98,33000,1,0
417,91,33500,1,0
417,91,33666,1,0
126,176,34666,1,0
160,235,35000,1,0
183,266,35333,1,0
233,272,35666,1,0
264,216,36333,1,0
297,146,36666,1,0
116,184,37333,1,0
136,258,37666,1,0
141,315,38000,1,0
158,355,38166,1,0
232,333,38666,1,0
266,250,39166,1,0
242,124,39500,1,0
131,156,40000,1,0
148,89,40500,1,0
258,53,40833,1,0
443,248,42500,1,0
374,260,42833,1,0
311,250,43166,1,0
245,251,43500,1,0
245,251,43833,1,0
245,251,44000,1,0
141,250,45000,1,0
95,250,45500,1,0
52,246,45833,1,0
37,221,46166,1,0
43,172,46666,1,0
44,124,47000,1,0
147,92,47666,1,0
140,155,48000,1,0
148,208,48333,1,0
143,272,48666,1,0
143,272,49000,1,0
143,272,49166,1,0
210,280,49666,1,0
258,280,50000,1,0
305,271,50333,1,0
308,224,51000,1,0
306,184,51333,1,0
127,96,63500,5,0
127,96,63666,1,0
127,96,64000,1,0
127,96,64166,1,0
127,96,64333,1,0
127,96,64666,1,0
127,96,64833,1,0
322,146,66000,1,0
296,212,66333,1,0
250,266,66666,1,0
140,269,67000,1,0
117,181,67666,1,0
125,125,68000,1,0
304,124,68666,1,0
301,216,69000,1,0
280,304,69333,1,0
193,300,69666,1,0
193,300,70000,1,0
193,300,70166,1,0
145,203,70500,1,0
161,116,70833,1,0
260,102,71333,1,0
281,192,71833,1,0
288,240,72166,1,0
168,188,73833,5,0
168,188,74166,1,0
168,188,74500,1,0
240,101,76000,1,0
240,101,76333,1,0
240,101,76666,1,0
240,101,77000,1,0
388,137,78666,1,0
388,137,79000,1,0
388,137,79333,1,0
388,137,79666,1,0
104,256,81333,1,0
104,256,81666,1,0
104,256,82000,1,0
104,256,82333,1,0
320,122,84000,1,0
320,122,84333,1,0
320,122,84666,1,0
320,122,85000,1,0
144,232,86500,1,0
144,232,86833,1,0
144,232,87166,1,0
144,232,87500,1,0
403,223,89166,1,0
403,223,89500,1,0
403,223,89833,1,0
403,223,90166,1,0
120,91,91666,5,0
120,91,92000,1,0
120,91,92333,1,0
120,91,92666,1,0
206,168,93333,1,0
206,168,93666,1,0
356,145,94666,1,0
338,211,95000,1,0
322,271,95333,1,0
298,315,95666,1,0
298,315,96000,1,0
298,315,96166,1,0
122,234,97333,1,0
131,179,97666,1,0
135,99,98000,1,0
224,88,98333,1,0
288,93,99000,1,0
356,105,99166,1,0
288,245,99833,1,0
243,266,100333,1,0
204,272,100666,1,0
204,272,100833,1,0
154,238,101166,1,0
154,238,101333,1,0
176,142,101833,1,0
237,111,102166,1,0
312,127,102500,1,0
310,205,103166,1,0
301,285,103500,1,0
118,95,105166,5,0
154,102,105500,1,0
185,105,105666,1,0
217,103,106000,1,0
217,103,106333,1,0
217,103,106500,1,0
323,113,107666,1,0
311,185,108000,1,0
310,236,108333,1,0
298,298,108666,1,0
227,309,109333,1,0
170,312,109666,1,0
140,240,110333,1,0
135,148,110666,1,0
137,88,111000,1,0
188,53,111333,1,0
252,100,111666,1,0
252,100,111833,1,0
250,220,112333,1,0
289,279,112666,1,0
379,256,113000,1,0
408,151,113666,1,0
398,69,114000,1,0
