osu file format v8

[General]
AudioFilename: Chip and Dale Rescue Rangers - True Version .mp3
AudioLeadIn: 0
PreviewTime: -1
Countdown: 1
SampleSet: Soft
StackLeniency: 0.7
Mode: 0
LetterboxInBreaks: 1

[Editor]
Bookmarks: 94908
DistanceSpacing: 0.800000011920929
BeatDivisor: 4
GridSize: 16

[Metadata]
Title:Chip N Dale Rescue Rangers
Artist:The Jets
Creator:Mifune24
Version:Easy
Source:
Tags:

[Difficulty]
HPDrainRate:4
CircleSize:3
OverallDifficulty:4
ApproachRate:2
SliderMultiplier:1.6
SliderTickRate:2

[Events]
//Background and Video events
0,0,"rescuerangers.jpg"
Video,0,"Chip n Dale Rescue Rangers Tip of the Iceberg .flv"
//Break Periods
//Storyboard Layer 0 (Background)
//Storyboard Layer 1 (Fail)
//Storyboard Layer 2 (Pass)
//Storyboard Layer 3 (Foreground)
//Storyboard Sound Samples
//Background Colour Transformations
3,100,163,162,255

[TimingPoints]
15579.8695652174,432.007803155847,4,2,0,100,1,0
34817,-100,4,2,0,100,0,1
48435,-100,4,2,0,100,0,0
69402,-100,4,2,0,100,0,1
83019,-100,4,2,0,100,0,0
97069,-100,4,2,0,100,0,1
98990,432.007803155847,4,2,0,100,1,1

[HitObjects]
48,48,15579,1,0
176,192,16227,1,0
320,48,17307,5,0
448,192,17955,1,0
256,320,19467,6,2,B|112:320|64:176,1,240
80,64,20547,1,2
208,112,20979,1,2
336,64,21411,1,2
464,48,22491,5,0
336,192,23140,1,0
192,48,24220,5,0
64,192,24868,1,0
256,320,26380,6,2,B|400:320|448:176,1,240
432,64,27460,1,2
304,112,27892,1,2
176,64,28324,1,2
32,192,29404,6,2,B|32:320|208:336,1,240
320,320,30484,1,2
448,320,30916,1,2
384,208,31348,1,2
256,208,31780,1,2
32,208,32860,6,2,B|32:48|208:48,1,240
304,48,33940,1,4
432,48,34372,1,4
448,176,34804,5,2
384,208,35020,1,2
320,240,35236,1,2
208,288,35668,1,2
96,336,36100,1,4
64,32,38260,5,2
128,48,38476,1,2
192,64,38692,1,2
320,96,39124,1,2
448,128,39556,1,4
256,336,41716,5,2
256,336,41932,1,2
128,288,42364,1,2
48,112,43012,2,4,B|144:16|288:80,1,240
400,96,44092,2,4,B|512:192|464:336,1,240
272,320,45388,5,2
144,320,45820,1,2
80,208,46252,1,2
208,208,46684,2,4,B|208:48|384:80,1,240
448,176,47764,2,4,B|448:288|352:288,1,160
352,48,50140,5,2
176,112,50788,1,2
176,240,51868,5,2
352,320,52516,1,2
224,336,54028,6,0,B|80:336|32:192,1,240
32,80,55108,2,2,B|192:80,1,160
320,80,55972,1,4
160,48,57052,5,2
352,144,57700,1,2
352,256,58780,5,2
160,320,59428,1,2
272,352,60940,6,0,B|416:352|464:208,1,240
464,96,62020,2,2,B|304:96,1,160
176,96,62884,1,4
32,192,63964,6,2,B|32:320|208:336,1,240
320,320,65044,1,2
448,320,65476,1,2
384,208,65908,1,2
256,208,66340,1,2
32,208,67420,6,2,B|32:48|208:48,1,240
304,48,68500,1,4
432,48,68932,1,4
448,176,69364,5,2
384,208,69580,1,2
320,240,69796,1,2
208,288,70228,1,2
96,336,70660,1,4
64,32,72820,5,2
128,48,73036,1,2
192,64,73252,1,2
320,96,73684,1,2
448,128,74116,1,4
256,336,76276,5,2
256,336,76492,1,2
128,288,76924,1,2
48,112,77572,2,4,B|144:16|288:80,1,240
400,96,78653,2,4,B|512:192|464:336,1,240
272,320,79949,5,2
144,320,80381,1,2
80,208,80813,1,2
208,208,81245,2,4,B|208:48|384:80,1,240
448,176,82325,2,4,B|448:288|352:288,1,160
272,48,84701,6,0,B|432:48|528:224|432:368|256:352|176:320|160:176,1,640
240,48,88157,6,0,B|80:48|-16:224|80:368|256:352|336:320|352:176,1,640
368,48,91613,6,2,B|480:112|480:272|368:336,1,320
144,320,93341,2,2,B|32:256|32:96|144:32,1,320
256,192,94853,12,0,96365
256,64,97013,5,2
304,112,97229,1,2
352,160,97445,1,2
224,160,97877,1,2
96,160,98309,2,2,B|80:320|272:320,1,240,2|4
288,256,100502,5,2
336,208,100718,1,2
384,160,100934,1,2
256,160,101366,1,2
128,160,101798,2,2,B|128:48|224:16|304:32,1,240,2|4
256,336,103958,5,2
256,336,104174,1,2
128,288,104606,1,2
48,112,105254,2,4,B|144:16|288:80,1,240
384,144,106334,1,4
448,320,106982,1,4
272,320,107630,5,2
144,320,108062,1,2
80,208,108494,1,2
208,208,108926,2,4,B|208:48|384:80,1,240
496,80,110006,1,4
432,192,110438,1,4
