osu file format v5

[General]
AudioFilename: Mortal Kombat-Theme Song.mp3
AudioLeadIn: 0
PreviewTime: -1
Countdown: 1
SampleSet: Normal
StackLeniency: 0.7
Mode: 0
LetterboxInBreaks: 0
SkinPreference:Default
EditorBookmarks: 16456,18249,66643,68435,96667,132963,134307,136547,137892

[Metadata]
Title:Techno Syndrome
Artist:The Immortals
Creator:beatmastermap
Version:Normal
Source:Mortal Kombat
Tags:Mortal Kombat

[Difficulty]
HPDrainRate:4
CircleSize:3
OverallDifficulty:5
SliderMultiplier:1.9
SliderTickRate:2

[Events]
//Background and Video events
0,0,"mortalkombat.jpg"
//Break Periods
2,46680,58575
2,89698,101592
2,117255,117424
2,134507,135347
2,138091,151779
//Storyboard Layer 0 (Background)
//Storyboard Layer 1 (Failing)
//Storyboard Layer 2 (Passing)
//Storyboard Layer 3 (Foreground)
//Storyboard Sound Samples
//Background Colour Transformations
3,100,163,162,255

[TimingPoints]
3904,448.16253361219,4,1,0,41,1,0
183146,-100,4,2,0,41,0,0
197037,-100,4,1,0,41,0,0

[Colours]
Combo1 : 0,255,128
Combo2 : 255,0,0
Combo3 : 255,255,0
Combo4 : 255,128,0

[HitObjects]
256,192,3904,1,4
64,304,5696,2,0,B|96:272|96:272|128:304|128:304|160:272|160:272|192:304|192:304|224:272|224:272|256:304|256:304|288:272|288:272|320:304|320:304|352:272|352:272|320:240|320:240|352:208|352:208|320:176|320:176|344:152,1,570
144,160,7489,5,4
440,328,9281,6,0,B|440:40|440:40|136:40|136:40|136:40,1,570
160,232,11074,5,4
392,352,12867,6,0,B|424:280|440:256|416:216|384:192|360:168|352:136|360:104|376:88|376:80|376:80,2,285
200,352,14659,5,4
256,192,16452,12,0,17797
432,272,18245,6,0,B|432:120,4,142.5
336,272,19813,5,0
240,272,20037,1,0
240,128,20373,6,0,B|96:128,3,142.5
96,224,21606,5,0
96,320,21830,2,0,B|248:320,4,142.5
96,224,23399,5,0
192,224,23623,1,0
336,224,23959,5,0
336,80,24295,5,0
240,80,24519,5,0
240,80,24631,5,0
144,80,24855,5,0
144,80,24967,5,0
48,240,25415,6,0,B|48:336|48:336|160:336,1,190,0|8
144,240,26088,1,2
240,240,26312,6,0,B|344:240|344:240|344:336,1,190,0|8
440,328,26984,1,2
440,232,27208,6,0,B|440:144|440:144|328:144,1,190,0|8
240,144,27880,1,2
144,144,28104,6,8,B|64:144|64:144|64:256,1,190,0|8
160,256,28777,1,2
256,256,29001,6,8,B|456:256,1,190,0|8
448,160,29673,1,2
352,160,29897,6,0,B|152:160,1,190,0|8
64,160,30569,1,2
256,192,30793,12,0,32138
64,304,32586,6,0,B|168:304,1,95
64,224,33034,2,0,B|168:224,1,95,8|0
64,144,33482,2,0,B|160:144,1,95
64,64,33930,2,0,B|168:64,1,95,8|0
256,64,34379,6,0,B|256:272,1,190,0|8
431,304,35051,6,0,B|336:304,1,95
432,224,35499,2,0,B|336:224,1,95,0|8
431,144,35947,2,0,B|336:144,1,95
432,64,36395,2,0,B|336:64,1,95,0|8
240,64,36843,1,0
144,64,37068,6,0,B|72:128|56:176|48:224|48:256|72:288|96:312|184:360,1,380
280,360,38188,6,8,B|352:360|352:360|352:272|352:272|392:272,1,190
472,272,38860,2,2,B|472:168,2,95
472,80,39757,5,0
280,80,40205,1,8
88,80,40653,1,0
280,80,41101,5,8
88,80,41549,1,0
88,272,41997,1,8
280,272,42445,5,0
88,272,42894,1,8
88,80,43342,1,0
88,272,43790,1,8
280,272,44238,5,0
472,272,44686,1,8
472,80,45134,5,4
320,80,45583,1,4
168,80,46031,1,4
16,80,46479,1,4
256,192,59476,12,0,60820
72,56,61268,6,0,B|224:56,4,142.5
72,152,62837,5,0
72,248,63061,1,0
215,248,63397,6,0,B|358:248,3,142.5
360,152,64630,5,0
360,56,64854,2,0,B|218:56,4,142.5
360,152,66422,5,0
360,248,66646,1,0
216,248,66982,1,0
72,248,67318,1,0
72,152,67543,5,0
72,152,67655,5,0
168,152,67879,5,0
168,152,67991,5,4
362,152,68439,6,0,B|362:248|362:248|474:248,1,190,0|8
456,152,69111,1,2
456,247,69335,6,0,B|456:334|456:334|352:334,1,190,0|8
256,336,70007,1,2
256,240,70232,6,0,B|256:152|256:152|144:152,1,190,0|8
152,248,70904,1,2
151,344,71128,6,8,B|71:344|71:344|71:233,1,190,0|8
72,136,71800,1,2
168,136,72024,6,8,B|368:136,1,190,0|8
448,136,72696,1,2
448,232,72921,6,0,B|248:232,1,190,0|8
160,232,73593,1,2
256,192,73817,12,0,75161
448,320,75610,6,0,B|448:112,2,190
256,320,76954,6,0,B|64:320,2,190
256,128,78298,6,0,B|464:128,2,190
64,128,79643,6,0,B|64:320,2,190
256,128,80987,1,0
256,128,81436,1,0
256,128,81884,1,0
256,128,82332,6,0,B|256:320,1,190
64,320,83228,6,0,B|64:128,1,190
256,128,84125,6,0,B|256:320,1,190
448,320,85021,6,0,B|448:128,1,190
256,128,85917,5,0
160,224,86365,1,0
352,224,86814,1,0
160,224,87262,5,0
352,224,87710,6,0,B|352:104|352:104|264:104,4,190
256,192,102499,12,0,103844
256,264,104292,6,0,B|256:112,4,142.5
352,264,105860,5,0
448,264,106085,1,0
448,120,106421,6,0,B|304:120,3,142.5
208,120,107653,5,0
112,120,107877,2,0,B|112:264,4,142.5
16,120,109446,5,0
16,24,109670,1,0
160,24,110006,1,0
304,24,110342,1,0
304,120,110566,5,0
304,120,110678,5,0
304,216,110902,5,0
304,216,111014,5,4
216,344,111463,5,4
288,344,111687,1,4
256,192,112023,12,0,112807
216,48,113255,5,4
288,48,113479,1,4
256,192,113815,12,0,114600
216,192,115048,5,4
288,192,115272,1,4
256,192,115608,12,0,116392
256,192,116840,5,4
256,192,117065,1,4
424,264,118633,6,0,B|424:152,2,95,0|0|8
328,264,119305,6,0,B|216:264,1,95
136,264,119754,6,0,B|40:264,1,95,0|8
40,168,120202,6,0,B|152:168,2,95
40,72,120874,6,0,B|144:72,1,95,8|0
232,72,121322,2,0,B|328:72,1,95
424,72,121770,6,0,B|424:176,2,95,8|0|0
328,72,122442,6,0,B|232:72,1,95,0|8
232,168,122891,6,0,B|232:264,1,95
328,264,123339,6,0,B|440:264,2,95,0|8|0
328,168,124011,2,0,B|432:168,1,95
424,72,124459,6,0,B|312:72,1,95,8|0
232,72,124907,6,0,B|160:72|168:136|136:200|88:192|72:192,1,190,0|8
256,288,125804,6,0,B|448:288,1,190,0|8
448,192,126476,5,0
352,192,126700,6,0,B|352:112|352:112|288:112|288:112|288:64,1,190,0|8
192,64,127372,1,0
96,64,127596,6,0,B|96:152|96:152|152:152|152:152|152:200,1,190,0|8
152,288,128269,1,0
248,288,128493,6,8,B|248:200|248:200|280:200|280:200|280:128,1,190,0|8
280,32,129165,1,0
376,32,129389,6,0,B|168:32,1,190,0|8
88,32,130061,1,0
88,128,130285,6,0,B|88:328,1,190,0|8
256,192,131182,12,0,132526
112,192,132974,6,0,B|416:192,2,285
256,48,136560,6,0,B|256:352,2,285
256,192,152693,12,0,154038
176,192,154486,6,0,B|328:192,4,142.5
176,96,156055,5,0
176,0,156279,1,0
319,0,156615,6,0,B|462:0,3,142.5
464,96,157847,5,0
464,192,158071,2,0,B|322:192,4,142.5
464,288,159640,5,0
464,288,159864,1,0
320,288,160200,5,0
176,288,160536,1,0
176,192,160760,6,0,B|112:192,1,47.5
128,96,161097,6,0,B|128:49,1,47.5
128,240,161657,6,0,B|128:336,1,95
224,336,162105,6,0,B|320:336,1,95
416,336,162553,6,0,B|416:240,1,95
416,144,163001,6,0,B|320:144,1,95
224,144,163449,6,0,B|224:240,1,95
128,240,163898,6,0,B|320:240,1,190
408,240,164570,6,0,B|408:144,1,95
504,144,165018,6,0,B|312:144,1,190
216,152,165690,6,0,B|216:48,1,95
312,56,166138,6,0,B|408:56,1,95
408,152,166586,6,0,B|408:256|408:256|408:256,1,95
256,192,167035,12,0,168379
416,152,168827,6,0,B|416:40,2,95
336,152,169500,6,0,B|336:40,2,95
256,152,170172,6,0,B|256:40,2,95
176,152,170844,6,0,B|176:40,2,95
96,152,171516,6,0,B|96:40,2,95
96,232,172189,6,0,B|96:327,2,95
176,232,172861,6,0,B|176:327,2,95
256,232,173533,6,0,B|256:327,2,95
336,232,174205,6,0,B|336:327,2,95
416,232,174878,6,0,B|416:327,2,95
488,192,175550,5,4
416,64,175998,5,0
320,64,176222,1,0
224,64,176446,1,0
128,64,176670,1,0
128,160,176894,1,0
128,256,177118,5,0
224,256,177342,1,0
224,160,177566,1,0
320,160,177791,6,0,B|320:352,1,190
128,352,178687,2,0,B|56:352|56:352|56:224,1,190
56,40,179583,2,0,B|256:40,1,190
432,40,180480,2,0,B|432:240,1,190
256,192,181376,12,0,182720
256,192,183169,6,0,B|48:192,1,190
256,192,184065,2,0,B|256:0,1,190
256,192,184961,2,0,B|128:32,1,190
256,192,185857,2,0,B|448:192,1,190
256,192,186754,2,0,B|408:48,1,190
256,192,187650,2,0,B|256:392,1,190
256,192,188546,12,4,189891
256,192,190339,6,0,B|256:384,1,190
256,192,191235,2,0,B|448:192,1,190
256,192,192132,2,0,B|256:0,1,190
256,192,193028,2,0,B|64:192,1,190
256,192,193924,2,0,B|400:56,1,190
256,192,194821,2,0,B|96:336,1,190
256,192,195717,12,4,197510
